RebeldeMule

Pan, oro, revólver (Samvel Gasparov, 1982)

Drama, comedia, suspense; a veces a caballo entre la ficción y la realidad, pero siempre cine para pensar con sentido crítico lo social.
Pan, oro, revólver
Khleb, zoloto, nagan / Хлеб, золото, наган
Samvel Gasparov (URSS, 1982) [66 min]

Portada
IMDb
(Wikipedia | Filmaffinity)


Sinopsis:


Jose RB, en "Pan, oro, revólver", en Cine Rusia, el 4 de septiembre de 2012, escribió:Olga Sokolova, empleada en un orfanato de Moscú, conduce una carreta cargada de trigo para poder alimentar a los niños allí acogidos. Para escoltar a Sokolova es asignado el soldado de marina Sasha Andronov. La pareja deberá llegar a la estación del pequeño pueblo de Gorodok, y allí tomar el tren a Moscú. En otro lugar el bolchevique Dyomin es enviado en un coche a Moscú para llevar un maletín con tres lingotes de oro. Mientras tanto, en la estación de Gorodok el chekista Vladimir Gorbach se despide de algunos compañeros que van a partir en un tren.

Olga Sokolova y Sasha Andronov, con el enfado de éste por la misión que le han asignado y que le impide estar en el frente, continuan su camino y mantienen un leve enfrentamiento verbal. Paralelamente, Dyomin se cruza en su camino con el convoy de carretas que transportaba trigo que ha sido atacado por bandidos, asesinando a todos los soldados. Olga llega por fin a Gorodok, y explica al jefe de estación, Stepan Zaitsev, cual es su misión y la urgencia por tomar el próximo tren. Zaitsev le promete encontrarle un sitio en el tren sanitario que está próximo a salir. Poco después Dyomin, cuyo coche se ha averiado, llega a Gorodok, y se aloja en la estación para poder tomar el tren a Moscú que sale al día siguiente.

A la mañana siguiente llega a la estación un soldado malherido que comunica a Zaitsev que las vías a Moscú han sido saboteadas por un grupo de soldados blancos. Inmediatamente llega el tren a la estación, pero viene conducido por soldados blancos que lo han asaltado, y empiezan a disparar contra la estación. Durante el tiroteo Dyomin es malherido y éste entrega a Zaitsev el malétin con el oro, encomendándole que lo entregue en el Comisariado Popular de Finanzas en Moscú. Olga, Andronov, Zaitsev y Gorbach huyen de Gorodok por las vías a bordo de un autorrail, con los sacos de trigo y el maletín que custodia el jefe de estación. Tras mantener un enfrentamiento con un grupo de cosacos al que consiguen derrotar, alcanzan el lugar donde las vías fueron saboteadas, y son capturados por el banda de Arkadi Mexentsev.

Mezentsev, un buscador de fortuna, ajeno a la lucha entre rojos y blancos, se ha escapado de prisión después de ser detenido por sus numerosos asaltos a bancos. El jefe de los bandidos interroga primero a unos soldados blancos, que le informan del tema del oro y después los asesina. Seguidamente interroga a Gorbach, pero éste lograr tender una trampa a Mezentsev y consigue escapar con Olga, Andronov y Zaitsev y los sacos de trigo en el coche del bandido. Se produce entonces la persecución de los fugados por la banda de Mezentsev. Tras diversas emboscadas cae abatido Sasha Andronov, que es enterrado por sus compañeros.

Olga, Gorbach y Zaitsev se alojan en una casa abandonada, y cuando los dos primeros están cambiando de envase el grano de los sacos descubren en su interior los lingotes de oro que Zaitsev había ocultado allí sin su conocimiento. Zaitsev que pretende quedarse con el oro dispara a Gorbach, pero Olga intenta evitarlo y cae muerta. Después Zaitsev dispara a Gorbach y escapa con el oro. Pero el chekista no ha muerto, y alcanza al jefe de estación y le da muerte. Malherido, Gorbach consigue llegar al Comisario Popular de Finanzas donde entrega el oro y después al orfanato donde deja los sacos de trigo para alimentar a los huérfanos.


Ficha técnica


Reparto:


Idioma original: Ruso.





Secuencias






DVDRip VOS - MKV (fuente)
detalles técnicos u otros: mostrar contenido
General
Unique ID : 254229254406152830050754201271749954508 (0xBF42C5FC3B65020AADB3EA9B1015CBCC)
Format : Matroska
Format version : Version 4
File size : 961 MiB
Duration : 1 h 3 min
Overall bit rate : 2 118 kb/s
Encoded date : UTC 2015-05-08 00:46:43
Writing application : mkvmerge v7.8.0 ('River Man') 64bit built on Mar 27 2015 16:31:37
Writing library : libebml v1.3.1 + libmatroska v1.4.2 / Lavf54.63.104

Video
ID : 1
Format : AVC
Format/Info : Advanced Video Codec
Format profile : Main@L3
Format settings : CABAC / 1 Ref Frames
Format settings, CABAC : Yes
Format settings, RefFrames : 1 frame
Codec ID : V_MPEG4/ISO/AVC
Duration : 1 h 3 min
Bit rate : 1 800 kb/s
Width : 720 pixels
Height : 320 pixels
Display aspect ratio : 2.25:1
Frame rate mode : Constant
Frame rate : 25.000 FPS
Color space : YUV
Chroma subsampling : 4:2:0
Bit depth : 8 bits
Scan type : Progressive
Bits/(Pixel*Frame) : 0.313
Stream size : 815 MiB (85%)
Writing library : x264 core 129
Encoding settings : cabac=1 / ref=1 / deblock=1:0:0 / analyse=0x1:0x131 / me=dia / subme=2 / psy=1 / psy_rd=1.00:0.00 / mixed_ref=0 / me_range=16 / chroma_me=1 / trellis=0 / 8x8dct=0 / cqm=0 / deadzone=21,11 / fast_pskip=1 / chroma_qp_offset=0 / threads=2 / lookahead_threads=1 / sliced_threads=0 / nr=0 / decimate=1 / interlaced=0 / bluray_compat=0 / constrained_intra=0 / bframes=0 / weightp=2 / keyint=250 / keyint_min=25 / scenecut=40 / intra_refresh=0 / rc_lookahead=40 / rc=abr / mbtree=1 / bitrate=1800 / ratetol=1.0 / qcomp=0.60 / qpmin=10 / qpmax=51 / qpstep=4 / ip_ratio=1.41 / aq=1:1.00
Default : Yes
Forced : No

Audio
ID : 2
Format : AC-3
Format/Info : Audio Coding 3
Commercial name : Dolby Digital
Codec ID : A_AC3
Duration : 1 h 3 min
Bit rate mode : Constant
Bit rate : 320 kb/s
Channel(s) : 6 channels
Channel layout : L R C LFE Ls Rs
Sampling rate : 48.0 kHz
Frame rate : 31.250 FPS (1536 SPF)
Bit depth : 16 bits
Compression mode : Lossy
Stream size : 145 MiB (15%)
Language : Russian
Service kind : Complete Main
Default : Yes
Forced : No

Text
ID : 3
Format : UTF-8
Codec ID : S_TEXT/UTF8
Codec ID/Info : UTF-8 Plain Text
Duration : 1 h 3 min
Bit rate : 36 b/s
Count of elements : 571
Stream size : 16.8 KiB (0%)
Language : Spanish
Default : Yes
Forced : No





:str: Reproducción:


    :sub: Subtítulos: no incluidos

Volver a Largometrajes de ficción

Antes de empezar, un par de cosas:

Puedes usar las redes sociales para enterarte de las novedades o ayudarnos a difundir lo que encuentres.
Si ahora no te apetece, puedes hacerlo cuando quieras con los botones de arriba.

Facebook Twitter
Telegram YouTube

Sí, usamos cookies. Puedes ver para qué las usamos y cómo quitarlas o simplemente puedes aceptarlo.