RebeldeMule

El merodeador (Joseph Losey, 1951)

Drama, comedia, suspense; a veces a caballo entre la ficción y la realidad, pero siempre cine para pensar con sentido crítico lo social.
El merodeador
The Prowler
Joseph Losey (EE.UU. de América, 1951) [B/N, 92 min]

Portada
IMDb
(Wikipedia | Filmaffinity)


Sinopsis:

    Un policía descontento con su trabajo, que culpa a los demás de sus problemas en el departamento, es designado para investigar el caso de un merodeador que ronda la casa de una mujer casada espiándola por la ventana del cuarto de baño. El policía se obsesiona por la mujer e imagina que si el marido muriera violentamente, el merodeador cargaría con las culpas.

Quatermain80, en "Merodeando en torno al sueño americano", en Filmaffinity, el 24 de junio de 2011, escribió:En anteriores ocasiones ya he manifestado mi aprecio por la obra cinematográfica de Joseph Losey, realizador al que principalmente conocía por sus grandes filmes europeos como "El Sirviente" o "The Go-Between". Sólo recientemente he tenido la oportunidad de conocer algunas de sus primeras películas, realizadas en EE UU antes de su marcha, motivada por su inclusión en la lista negra. Ésta es una de ellas, y francamente resulta una película notable que, encuadrada dentro del género negro, contiene sin embargo una ácida crítica a la moral y a las ambiciones frustradas que encierra -desde esta perspectiva- el sueño americano.

Tal argumento se debe sobre todo a la labor del guionista, Dalton Trumbo, que hizo uso de su amigo Butler como "tapadera", expresando en el filme ideas acerca de la sociedad americana que ya había apuntado en el guión de la excelente "Gun Crazy" y que reafirmará en el de la posterior "He Ran all the Way". Así, los protagonistas comparten la circunstancia de haber visto frustrados sus sueños de juventud, quedando "encerradas" sus vidas en la insatisfacción, ya sea por un matrimonio infeliz o por un trabajo aborrecido. El personaje de Van Heflin, Web, encarna toda la ambición y frustración del individualista que creyéndose destinado al triunfo ha visto sus esperanzas truncadas; cuando trabe conocimiento con la también frustrada Susan (de quien admira lo que tiene, no lo que es) verá por fin la posibilidad de construir un nuevo camino al éxito, camino en el que la moral debe ser apartada a un lado, cueste lo que cueste.

Aunque en algunos momentos las situaciones resulten un tanto forzadas, sirven en todo caso para transmitir la idea fuerza antes referida, que presenta a individuos obsesionados con lo que ellos entienden que debe ser el éxito o el reconocimiento social en la sociedad estadounidense; la persecución de ese sueño lo justifica todo, desde el engaño al crimen, pues es el empeño personal, la decisión de no detenerse ante nada, la que asegura su consecución (como bien apunta Web en un diálogo ya casi al final, en el que se justifica poniendo el ejemplo de los abogados y otros profesionales, cuya falta de moral comparte). Precisamente la carga subversiva del filme estriba en que Web no es ningún psicópata -discrepo aquí amablemente de mi predecesor- sino una versión corrompida del emprendedor americano.

Eficazmente rodada, con una acertada elección de exteriores en el tramo final (excelente la ambientación en la desolada ciudad de Calico) y unas interpretaciones notables de la pareja protagonista, la película parece advertirnos que quien merodea en torno al sueño americano, suele acabar despertando en la peor de las pesadillas.


Ficha técnica

    Guión: Hugo Butler, Dalton Trumbo; basado en la historia de Robert Thoeren, Hans Wilhelm.
    Música: Lyn Murray.
    Fotografía: Arthur C. Miller.
    Productora: Horizon Pictures.

Reparto:

  • Van Heflin (Webb Garwood).
  • Evelyn Keyes (Susan Gilvray).
  • John Maxwell (Bud Crocker).
  • Katherine Warren (señora Crocker).
  • Emerson Treacy (William Gilvray).
  • Madge Blake.
  • Wheaton Chambers.
  • Robert Osterloh.
  • Sherry Hall.
  • Louise Lorimer.




VHSRip VOS - AVI (DivX+MP3)





DVDRip VO+S - MKV (X264/AVC+MP3)
detalles técnicos u otros: mostrar contenido
Format : Matroska
File size : 1.28 GiB
Duration : 1h 32mn
Overall bit rate : 1 967 Kbps
Encoded date : UTC 2011-02-14 12:37:52
Writing application : mkvmerge v4.0.0 ('The Stars were mine') built on Jun 6 2010 16:18:42
Writing library : libebml v1.0.0 + libmatroska v1.0.0

Video
ID : 1
Format : AVC
Format/Info : Advanced Video Codec
Format profile : High@L4.1
Format settings, CABAC : Yes
Format settings, ReFrames : 16 frames
Codec ID : V_MPEG4/ISO/AVC
Duration : 1h 32mn
Bit rate : 1 799 Kbps
Width : 718 pixels
Height : 476 pixels
Display aspect ratio : 4:3
Original display aspect ratio : 4:3
Frame rate : 23.976 fps
Color space : YUV
Chroma subsampling : 4:2:0
Bit depth : 8 bits
Scan type : Progressive
Bits/(Pixel*Frame) : 0.220
Stream size : 1.17 GiB (92%)
Writing library : x264 core 114 r1900 60ef1f8
Encoding settings : cabac=1 / ref=16 / deblock=1:-1:-1 / analyse=0x3:0x133 / me=umh / subme=10 / psy=1 / psy_rd=1.00:0.15 / mixed_ref=1 / me_range=24 / chroma_me=0 / trellis=2 / 8x8dct=1 / cqm=0 / deadzone=21,11 / fast_pskip=1 / chroma_qp_offset=-3 / threads=6 / sliced_threads=0 / nr=0 / decimate=1 / interlaced=0 / constrained_intra=0 / bframes=8 / b_pyramid=2 / b_adapt=2 / b_bias=0 / direct=3 / weightb=1 / open_gop=0 / weightp=2 / keyint=250 / keyint_min=23 / scenecut=40 / intra_refresh=0 / rc_lookahead=60 / rc=crf / mbtree=1 / crf=18.0 / qcomp=0.60 / qpmin=0 / qpmax=69 / qpstep=4 / ip_ratio=1.40 / aq=1:1.00
Language : English

Audio
ID : 2
Format : MPEG Audio
Format version : Version 1
Format profile : Layer 3
Mode : Joint stereo
Mode extension : MS Stereo
Codec ID : A_MPEG/L3
Codec ID/Hint : MP3
Duration : 1h 32mn
Bit rate mode : Constant
Bit rate : 128 Kbps
Channel(s) : 2 channels
Sampling rate : 48.0 KHz
Compression mode : Lossy
Stream size : 85.1 MiB (7%)
Writing library : LAME3.98r
Encoding settings : -m j -V 4 -q 2 -lowpass 17 -b 128
Language : English

Text #1
ID : 3
Format : UTF-8
Codec ID : S_TEXT/UTF8
Codec ID/Info : UTF-8 Plain Text
Language : Spanish

Text #2
ID : 4
Format : UTF-8
Codec ID : S_TEXT/UTF8
Codec ID/Info : UTF-8 Plain Text
Language : English





Relacionado:

    Portada
    Monografías. (EEUU de América, 1943-1954)
    : M. Curtiz, L. Milestone, E. Dmytryk, F. Lang, J. Tourneur, J. Larkin, E. Kazan, J. Negulesco, W. Wyler, D. Daves, R. Rossen, J. Dassin, G. S. Kaufman, J. Losey, J. Huston, A. Polonsky, J. Berry, D. Daves, H. J. Biberman
    Repaso a un cine que intentó investigar, analizar y mostrar las miserias de una sociedad y un país, la corrupción, la falta de libertades, la manipulación y la intolerancia y que sirvió como pretexto para la famosa caza de brujas en Hollywood...


[ Add all 2 links to your ed2k client ]

Volver a Largometrajes de ficción

Antes de empezar, un par de cosas:

Puedes usar las redes sociales para enterarte de las novedades o ayudarnos a difundir lo que encuentres.
Si ahora no te apetece, puedes hacerlo cuando quieras con los botones de arriba.

Facebook Twitter
Telegram YouTube

Sí, usamos cookies. Puedes ver para qué las usamos y cómo quitarlas o simplemente puedes aceptarlo.