RebeldeMule

El cantor (Dean Reed, 1977)

Drama, comedia, suspense; a veces a caballo entre la ficción y la realidad, pero siempre cine para pensar con sentido crítico lo social.
El cantor
Dean Reed (RDA, Bulgaria, 1977) [80 min]

Portada
IMDb
(wikipedia | filmaffinity)


Sinopsis:

    [fuente] "El Cantor" elogia la memoria del cantante de música folklórica chilena Víctor Jara, asesinado por la junta militar, y describe las tres últimas semanas en la vida del autor y su incansable trabajo por la Unidad Popular. El cantante estadounidense Dean Reed, que vivía en la RDA, dirigió y protagonizó la película, en la que interpreta el papel del propio Víctor Jara. El guión se basa en entrevistas con la viuda de Jara, Joan Turner-Jara, y en conversaciones con personas próximas al cantante que vivieron exiliadas en Bulgaria, la Unión Soviética y Cuba.

Ficha técnica


Reparto:





DVDRip VO - MKV (cortesía del compañero alber93ballesteros)
detalles técnicos u otros: mostrar contenido
General
Unique ID : 197916074020350681510736251304600982559 (0x94E53FD4F3A40B1DB1410C609300D41F)
Complete name : El Cantor (Dean Reed, 1977).mkv
Format : Matroska
Format version : Version 4
File size : 1 009 MiB
Duration : 1 h 24 min
Overall bit rate : 1 670 kb/s
Encoded date : UTC 2017-03-24 22:46:07
Writing application : mkvmerge v9.9.0 ('Pick Up') 64bit
Writing library : libebml v1.3.4 + libmatroska v1.4.5

Video
ID : 1
Format : MPEG-4 Visual
Format profile : Advanced Simple@L5
Format settings : BVOP1
Format settings, BVOP : 1
Format settings, QPel : No
Format settings, GMC : No warppoints
Format settings, Matrix : Default (H.263)
Codec ID : V_MS/VFW/FOURCC / XVID
Codec ID/Hint : XviD
Duration : 1 h 24 min
Bit rate : 1 476 kb/s
Width : 720 pixels
Height : 576 pixels
Display aspect ratio : 5:4
Frame rate mode : Constant
Frame rate : 25.000 FPS
Standard : PAL
Color space : YUV
Chroma subsampling : 4:2:0
Bit depth : 8 bits
Scan type : Progressive
Compression mode : Lossy
Bits/(Pixel*Frame) : 0.142
Stream size : 892 MiB (88%)
Writing library : XviD 64
Default : Yes
Forced : No

Audio
ID : 2
Format : AC-3
Format/Info : Audio Coding 3
Commercial name : Dolby Digital
Codec ID : A_AC3
Duration : 1 h 24 min
Bit rate mode : Constant
Bit rate : 192 kb/s
Channel(s) : 2 channels
Channel layout : L R
Sampling rate : 48.0 kHz
Frame rate : 31.250 FPS (1536 SPF)
Bit depth : 16 bits
Compression mode : Lossy
Stream size : 116 MiB (11%)
Service kind : Complete Main
Default : Yes
Forced : No


Hola amigos, como primer aporte en este foro os dejo una versión de esta película de 1977 con una calidad perfecta, seguramente sacada de DVD, que encontré en un foro checo que ya cerró. Al contrario que la que está publicada, esta está entera.

Si hubiese algún problema, solo decidme.

[Editado por el comité de RBM para incluir el enlace en el primer mensaje. Muchísimas gracias por la aportación, y la manera de hacerla, compañero alber93ballesteros.]

Salud!

Muchas gracias por el aporte, alber93ballesteros :bravo: :bravo: :bravo:

Gracias a vosotros, fue un verdadero placer compartir cosas así.


Volver a Largometrajes de ficción

Antes de empezar, un par de cosas:

Puedes usar las redes sociales para enterarte de las novedades o ayudarnos a difundir lo que encuentres.
Si ahora no te apetece, puedes hacerlo cuando quieras con los botones de arriba.

Facebook Twitter
Telegram YouTube

Sí, usamos cookies. Puedes ver para qué las usamos y cómo quitarlas o simplemente puedes aceptarlo.