RebeldeMule

La manipulación de Diario de Navarra (Apurtu Berriak, 2008)

Series, programas, reportajes, telefilms, productoras independientes, youtubers... el formato televisivo liberado para las masas.
La manipulación de Diario de Navarra
Apurtu Berriak (España, 2008) [9 min]


Sinopsis:

    El reportaje de Apurtu Berriak correspondiente al mes de noviembre (2008) aborda la responsabilidad de determinados medios de comunicación en campañas de criminalización de la Izquierda Abertzale.




¿?Rip VO - MP4 (DivX+MP3)
detalles técnicos u otros: mostrar contenido
General
Complete name : La manipulación de Diario de Navarra (Apurtu Berriak, 2008).divx
Format : DivX
Format/Info : Hack of AVI
File size : 72.3 MiB
Duration : 9mn 24s
Overall bit rate : 1 074 Kbps

Video
Format : MPEG-4 Visual
Format settings, BVOP : Yes
Format settings, QPel : No
Format settings, GMC : No warppoints
Format settings, Matrix : Default
Muxing mode : Packed bitstream
Codec ID : DX50
Codec ID/Hint : DivX 5
Duration : 9mn 24s
Bit rate : 1 000 Kbps
Width : 700 pixels
Height : 576 pixels
Display aspect ratio : 1.215
Frame rate : 25.000 fps
Resolution : 24 bits
Colorimetry : 4:2:0
Scan type : Progressive
Bits/(Pixel*Frame) : 0.099
Stream size : 67.3 MiB (93%)
Writing library : DivX 2310

Audio
Format : MPEG Audio
Format version : Version 1
Format profile : Layer 3
Codec ID : 55
Codec ID/Hint : MP3
Duration : 9mn 24s
Bit rate mode : Constant
Bit rate : 64.0 Kbps
Channel(s) : 1 channel
Sampling rate : 44.1 KHz
Resolution : 16 bits
Stream size : 4.31 MiB (6%)
Alignment : Split accross interleaves
Interleave, duration : 40 ms (1.00 video frame)
Interleave, preload duration : 500 ms
Title : Audio





:str: Reproducción:


Volver a Televisión

Antes de empezar, un par de cosas:

Puedes usar las redes sociales para enterarte de las novedades o ayudarnos a difundir lo que encuentres.
Si ahora no te apetece, puedes hacerlo cuando quieras con los botones de arriba.

Facebook Twitter
Telegram YouTube

Sí, usamos cookies. Puedes ver para qué las usamos y cómo quitarlas o simplemente puedes aceptarlo.