RebeldeMule

Balada del pequeño soldado (W. Herzog, D. Reichl, 1984)

Series, programas, reportajes, productoras independientes, youtubers... el formato televisivo liberado para las masas.
Balada del pequeño soldado
Ballade vom kleinen Soldaten/ Ballad of the Little Soldier
Werner Herzog, Denis Reichle (Alemania del Oeste, 1984) [45 min]

Portada
IMDb
(Filmaffinity)


Sinopsis:

    En la primavera de 1984, Herzog viaja hasta la frontera entre Nicaragua y Honduras, cerca del río Coco, con el fotógrafo y periodista Denis Reichle, para contar la historia de un ejército de niños–soldados que han renunciado a la infancia para prepararse únicamente para la guerra. Durante varias semanas, siguen el entrenamiento de los indios misquito. Aliados primero con los sandinistas para derrocar a Somoza, ahora se rebelan contra el gobierno sandinista y son entrenados por un antiguo miembro de la Guardia Nacional somocista.

Aquí se escribió:El entrenamiento de niños indígenas miskitos como soldados en Nicaragua es el tema central de este impactante documental de Werner Herzog, realizado en la frontera entre este país y Honduras, cerca del caudal del río Coco. Acompañado por el periodista y fotógrafo Denis Reichle, el cineasta retrata sin concesiones como estos infantes, utilizados tanto por Contras como Sandinistas, combatientes ambos del conflicto armado nicaragüense, se preparan para morir en la guerra, perdiendo su inocencia sin remedio.

Un humanismo nada subrayado, porque los hechos hablan y la filmación de niños usados como carne de cañón no incurre en zooms abyectos.

En un pueblo indígena cuyo territorio es la selva nicaragüense, los miskitos, organizados por siglos en la práctica de un socialismo primitivo, pelean aliados del sandinismo ante la invasión de su hábitat por parte de Somoza. Sin embargo, cuando éste cae, los sandinistas en el poder los reprimen violentamente, tanto a ellos como a sus peticiones.

Entonces, la división de niños-soldados de esta etnia comienzan a ser entrenados y pertrechados ahora por los contras, siendo adoctrinados contra “el comunismo”: concepto vacío que les fuerzan a identificar con la matanza de seres queridos. Un colonialismo territorial, sí, pero también del lenguaje.

Estos chicos morirán, qué duda cabe, todos los bandos los utilizan sucesivamente porque – parafraseando a John Ford – they are expendable.

Muy lejos del estereotipo con el que muchos rotulan al director, aquí no hay foco en protagonistas megalómanos capaces de aplastar a quienes se interpongan en sus proyectos delirantes, sino una luz tenue, un grito ahogado a favor de los más débiles.

Y dos de las imágenes más tristes de toda su filmografía: el plano secuencia con niños sometidos a la práctica del disparo con mortero, y la visión del lánguido soldadito cantando su balada.*2

Fuentes de Información: Cineteca Nacional, *2 Viviendo dos veces.


Ficha técnica

    Guión: Werner Herzog, Denis Reichle.
    Fotografía: Michael Edols, Jorge Vignati.
    Productora: Süddeutscher Rundfunk (SDR) / Werner Herzog Filmproduktion.




¿?Rip VO+S - AVI (XviD+MP3)
detalles técnicos u otros: mostrar contenido
General
Complete name : Ballad.of.the.little.soldier.1984.DVDRip.XviD.MP3.emule.via.clan-sudamerica.net.avi
Format : AVI
Format/Info : Audio Video Interleave
File size : 700 MiB
Duration : 44mn 8s
Overall bit rate mode : Variable
Overall bit rate : 2 216 Kbps
Writing application : VirtualDubMod 1.5.4.1 (build 2178/release)
Writing library : VirtualDubMod build 2178/release

Video
ID : 0
Format : MPEG-4 Visual
Format profile : Advanced Simple@L5
Format settings, BVOP : 1
Format settings, QPel : No
Format settings, GMC : No warppoints
Format settings, Matrix : Custom
Codec ID : XVID
Codec ID/Hint : XviD
Duration : 44mn 8s
Bit rate : 2 080 Kbps
Width : 560 pixels
Height : 432 pixels
Display aspect ratio : 1.296
Frame rate : 29.970 fps
Color space : YUV
Chroma subsampling : 4:2:0
Bit depth : 8 bits
Scan type : Progressive
Compression mode : Lossy
Bits/(Pixel*Frame) : 0.287
Stream size : 657 MiB (94%)
Writing library : XviD 1.2.0SMP (UTC 2006-01-08)

Audio
ID : 1
Format : MPEG Audio
Format version : Version 1
Format profile : Layer 3
Mode : Joint stereo
Codec ID : 55
Codec ID/Hint : MP3
Duration : 44mn 8s
Bit rate mode : Variable
Bit rate : 122 Kbps
Nominal bit rate : 128 Kbps
Channel(s) : 2 channels
Sampling rate : 48.0 KHz
Compression mode : Lossy
Stream size : 38.4 MiB (5%)
Alignment : Aligned on interleaves
Interleave, duration : 24 ms (0.72 video frame)
Interleave, preload duration : 523 ms
Writing library : LAME3.97b
Encoding settings : -m j -V 4 -q 2 -lowpass 17 --abr 128
Language : English


Volver a Televisión

Antes de empezar, un par de cosas:

Puedes usar las redes sociales para enterarte de las novedades o ayudarnos a difundir lo que encuentres.
Si ahora no te apetece, puedes hacerlo cuando quieras con los botones de arriba.

Facebook Twitter
Telegram YouTube

Sí, usamos cookies. Puedes ver para qué las usamos y cómo quitarlas o simplemente puedes aceptarlo.