RebeldeMule

Breaking the code (Herbert Wise, 1996)

Series, programas, reportajes, telefilms, productoras independientes, youtubers... el formato televisivo liberado para las masas.
Descifrando el código
Breaking the Code
Herbert Wise (Reino Unido, 1996) [90 min]

Portada
IMDb
(Wikipedia | Filmaffinity)


Sinopsis:

    Adaptación para televisión de la obra de teatro de Hugh Whitemore sobre la vida del científico y pensador británico Alan Turing, promotor de la teoría de algoritmos, la informática, la criptografía y los estudios sobre inteligencia artificial. La obra de Whitemore se basa a su vez en la biografía de Alan Turing escrita por un importante estudioso de su vida y de su obra, Andrew Hodges. En tanto se refiere al investigador real, es posible que la película interese más a quienes ya le conozcan y vayan comprobando en qué medida lo que ven en pantalla es reflejo fiel y ágil de la historia y de su pensamiento que a quienes busquen descubrirlo -en los aspectos de informática como ingeniería se queda, sin duda, muy corta-. Pero tiene también entidad como un drama sobre ciencia y sociedad o sobre la lucha contra una sociedad represiva, independientemente de la referencia a situaciones particulares.

Ficha técnica

    Guión: Hugh Whitemore; basado en el libro de Andrew Hodges.
    Fotografía: Robin Vidgeon.
    Productora: British Broadcasting Corporation (BBC) / The Drama House / WGBH.

Reparto:

    Derek Jacobi, Alun Armstrong, Blake Ritson, William Mannering, Prunella Scales, Julian Kerridge, Harold Pinter, Richard Johnson, Amanda Root.

Idioma original: Inglés.





DVDRip VOS: AVI (XviD+MP3) [666.33 Mb]
detalles técnicos u otros: mostrar contenido
General
Complete name: Breaking The Code (Alan Turing - The Enigma) [BBC,1h30m46s,EN].xvid.avi
Format: AVI
Format/Info: Audio Video Interleave
File size: 666 MiB
Duration: 1h 30mn
Overall bit rate: 1 026 Kbps
Writing application: VirtualDubMod 1.5.10.1 (build 2439/release)
Writing library: VirtualDubMod build 2439/release

Video
ID: 0
Format: MPEG-4 Visual
Format profile: Advanced Simple@L5
Format settings, BVOP: 2
Format settings, QPel: No
Format settings, GMC: No warppoints
Format settings, Matrix: Default (H.263)
Muxing mode: Packed bitstream
Codec ID: XVID
Codec ID/Hint: XviD
Duration: 1h 30mn
Bit rate: 905 Kbps
Width: 640 pixels
Height: 384 pixels
Display aspect ratio: 1.667
Frame rate: 25.000 fps
Color space: YUV
Chroma subsampling: 4:2:0
Bit depth: 8 bits
Scan type: Progressive
Compression mode: Lossy
Bits/(Pixel*Frame): 0.147
Stream size: 587 MiB (88%)
Writing library: XviD 1.1.0 Beta2 (UTC 2005-04-04)

Audio
ID: 1
Format: MPEG Audio
Format version: Version 1
Format profile: Layer 3
Mode: Joint stereo
Mode extension: MS Stereo
Codec ID: 55
Codec ID/Hint: MP3
Duration: 1h 30mn
Bit rate mode: Constant
Bit rate: 112 Kbps
Channel(s): 2 channels
Sampling rate: 48.0 KHz
Compression mode: Lossy
Delay relative to video: 20ms
Stream size: 72.7 MiB (11%)
Alignment: Split accross interleaves
Interleave, duration: 40 ms (1.00 video frame)
Interleave, preload duration: 500 ms





:str: Está disponible en youtube una copia con subtítulos en castellano:



[ Add all 2 links to your ed2k client ]

Volver a Televisión

Antes de empezar, un par de cosas:

Puedes usar las redes sociales para enterarte de las novedades o ayudarnos a difundir lo que encuentres.
Si ahora no te apetece, puedes hacerlo cuando quieras con los botones de arriba.

Facebook Twitter
Telegram YouTube

Sí, usamos cookies. Puedes ver para qué las usamos y cómo quitarlas o simplemente puedes aceptarlo.