RebeldeMule

Mi amigo Hugo (Oliver Stone, TeleSur, 2014)

Series, programas, reportajes, telefilms, productoras independientes, youtubers... el formato televisivo liberado para las masas.
Mi amigo Hugo
Oliver Stone (Venezuela, 2014) [52 min]

Portada
IMDb
(Filmaffinity | Facebook)


Sinopsis:

    La película recorre testimonios de familiares, amigos, intelectuales y líderes políticos y fue realizada por Stone para homenajear a Hugo Rafael Chávez Frías, presidente de la República Bolivariana de Venezuela fallecido en 2013.

Aquí se escribió:El documental "Mi Amigo Hugo" dura aproximadamente 50 minutos y es una recopilación de testimonios de familiares, amigos, intelectuales y políticos sobre el comandante Hugo Chávez, precursor del actual proceso de integración latinoamericano y caribeño. Con una transmisión simultánea en más de 13 países como Cuba, Bolivia, Haití y Turquía, la pieza cinematrográfica mostró la vida del líder bolivariano en base a testimonios y a los comentarios del comandante que dirigió la rebelión Cívico-Militar de 1992.

El documental "Mi amigo Hugo", producción de teleSUR y dirigido por el cineasta estadounidense, Oliver Stone, se estrenó este miércoles como parte de los actos para honrar el líder bolivariano, Hugo Chavez, a un año de su partida física.

Con una transmisión simultánea en más de 13 países como Cuba, Bolivia, Haití y Turquía, la pieza cinematrográfica mostró la vida del líder bolivariano en base a testimonios y a los comentarios del comandante que dirigió la rebelión Cívico-Militar de 1992.

Previamente a su llegada a la academia militar, donde fue proyectado el documental, el canciller venezolano, Elías Jaua, el vicepresidente Jorge Arreaza y la presidenta del multiestatal teleSUR, Patricia Villegas, indicaron que esta pieza cinematográfica servirá para dejar un legado palpable de la vida de Hugo Chávez.

Villegas destacó que el trabajo de Oliver Stone demuestra una vez más que "es posible hacer los sueños realidad", una de las mayores enseñanzas que dejó Chávez.

Posterior a la proyección del documental, la ministra de la Defensa de Venezuela, Carmen Meléndez, que participó con su testimonio en la obra, resaltó que las lecciones del líder bolivariano se avivaron tras observar la película. "Han sido sentimientos encontrados los que surgen al ver el resultado de lo que hizo Oliver Stone".

El cineasta Oliver Stone ha tenido una relación cercana con América Latina, fundada en su amistad con distintos líderes y presidentes de la región.

Previamente Stone estrenó en 2010 el documental "Al Sur de la Frontera" donde mostró distintas facetas de los mandatarios de Bolivia, Brasil, Argentina, Ecuador, Paraguay, Cuba y Venezuela.

La cinta narra muchos aspectos de la vida del presidente de Venezuela, Hugo Chávez, e incluye entrevistas a otros varios presidentes de América Latina: Evo Morales de Bolivia, Cristina y Nestor Kirchner de Argentina, Rafael Correa de Ecuador, Raúl Castro de Cuba, Fernando Lugo de Paraguay y Lula da Silva de Brasil.

Esta fue una obra que enmarcó la relación de estos líderes latinoamericanos con su pueblo. En los 102 minutos del documental se puede ver al mandatario boliviano, Evo Morales, jugar al fútbol o al líder bolivariano, Hugo Chávez, hablando sobre detalles de su infancia.

Agradecimiento de los usuarios

Usuarios y seguidores de teleSUR a través de la red social twitter mostraron su agradecimiento por la pieza cinematográfica realizada por el estadounidense Oliver Stone, obra que tildaron como "un emocionante documental", "hermoso, nostálgico e histórico", agradeciendo al canal de noticias multiestatal por su transmisión.


Ficha técnica

    Música: Adam Peters.
    Fotografía: Carlos Marcovich, Lucas Fuica.
    Productora: TeleSur.

Intervienen:

    Hugo Chávez, Oliver Stone.




DVBRip VE: AVI (Encontrado en eMule)
detalles técnicos u otros: mostrar contenido
General
Complete name : Mi Amigo Hugo (Oliver Stone) (2014) (HDTV) (Español).avi
Format : AVI
Format/Info : Audio Video Interleave
Format profile : OpenDML
File size : 1.02 GiB
Duration : 2h 14mn
Overall bit rate : 1 082 Kbps
Writing application : Lavf52.32.0

Video
Format : MPEG-4 Visual
Format profile : Simple@L3
Format settings, BVOP : No
Format settings, QPel : No
Format settings, GMC : No warppoints
Format settings, Matrix : Default
Codec ID : XVID
Codec ID/Hint : XviD
Duration : 2h 14mn
Bit rate : 990 Kbps
Width : 1 280 pixels
Height : 720 pixels
Display aspect ratio : 16/9
Frame rate : 29.970 fps
Resolution : 24 bits
Colorimetry : 4:2:0
Scan type : Progressive
Bits/(Pixel*Frame) : 0.036
Stream size : 955 MiB (91%)
Writing library : XviD 50

Audio
Format : MPEG Audio
Format version : Version 1
Format profile : Layer 3
Codec ID : 55
Codec ID/Hint : MP3
Duration : 59mn 14s
Bit rate mode : Constant
Bit rate : 192 Kbps
Channel(s) : 2 channels
Sampling rate : 44.1 KHz
Resolution : 16 bits
Stream size : 81.3 MiB (8%)
Alignment : Aligned on interleaves
Interleave, duration : 26 ms (0.78 video frame)
Writing library : LAME3.98.2

Created with: DP MediaInfo version 1.05 (c) by Dirk Paehl
MediaInfoLib - v0.7.8





:str: Reproducción:





Relacionado:


Volver a Televisión

Antes de empezar, un par de cosas:

Puedes usar las redes sociales para enterarte de las novedades o ayudarnos a difundir lo que encuentres.
Si ahora no te apetece, puedes hacerlo cuando quieras con los botones de arriba.

Facebook Twitter
Telegram YouTube

Sí, usamos cookies. Puedes ver para qué las usamos y cómo quitarlas o simplemente puedes aceptarlo.