RebeldeMule

Severino Di Giovanni (Bio.ar, Canal Encuentro, 2009)

Series, programas, reportajes, telefilms, productoras independientes, youtubers... el formato televisivo liberado para las masas.
Severino Di Giovanni
Canal Encuentro (Argentina, 2009) [30 min]

Portada Portada
(Página oficial)


Sinopsis:

    El programa "Bio.ar" es un recorrido por la biografía de hombres y mujeres vinculados con la vida política, social y cultural de la Argentina. Un relato que integra datos documentales, investigación e imágenes de valor testimonial. Integran la serie Hipólito Yrigoyen, Lola Mora, Leopoldo Lugones, Alfredo Palacios, Julieta Lanteri, Alfonsina Storni, Azucena Villaflor, Natalio Botana, Victoria Ocampo y muchos otros. Un acercamiento histórico y contemporáneo a los procesos más trascendentes en la construcción del país y a sus representaciones, desde la mirada del historiador Gabriel Di Meglio. En esta edición, se trata la figura del militante anarquista Severino di Giovanni.

Comentario personal:


Ficha técnica





TVRip VO+S - MP4 (X264/AVC+AAC)
detalles técnicos u otros: mostrar contenido
General
PP-14482.mp4
Format : MPEG-4
Format profile : Base Media / Version 2
Codec ID : mp42
File size : 344 MiB
Duration : 30mn 10s
Overall bit rate : 1 596 Kbps
Encoded date : UTC 2012-01-25 09:24:05
Tagged date : UTC 2012-01-25 09:24:05

Video
Format : AVC
Format/Info : Advanced Video Codec
Format profile : High@L5.1
Format settings, CABAC : Yes
Format settings, ReFrames : 2 frames
Codec ID : avc1
Codec ID/Info : Advanced Video Coding
Duration : 30mn 10s
Bit rate mode : Variable
Bit rate : 1 337 Kbps
Width : 720 pixels
Height : 540 pixels
Display aspect ratio : 4/3
Frame rate mode : Constant
Frame rate : 25.000 fps
Resolution : 24 bits
Colorimetry : 4:2:0
Scan type : Progressive
Bits/(Pixel*Frame) : 0.138
Stream size : 289 MiB (84%)
Language : English
Encoded date : UTC 2012-01-25 09:24:05
Tagged date : UTC 2012-01-24 15:10:14

Audio
Format : AAC
Format/Info : Advanced Audio Codec
Format version : Version 4
Format profile : LC
Format settings, SBR : No
Codec ID : 40
Duration : 30mn 10s
Bit rate mode : Variable
Bit rate : 254 Kbps
Maximum bit rate : 421 Kbps
Channel(s) : 2 channels
Channel positions : L R
Sampling rate : 44.1 KHz
Resolution : 16 bits
Stream size : 54.7 MiB (16%)
Language : English
Encoded date : UTC 2012-01-25 09:24:05
Tagged date : UTC 2012-01-24 15:10:14





:str: Reproducción







Relacionado


Volver a Televisión

Antes de empezar, un par de cosas:

Puedes usar las redes sociales para enterarte de las novedades o ayudarnos a difundir lo que encuentres.
Si ahora no te apetece, puedes hacerlo cuando quieras con los botones de arriba.

Facebook Twitter
Telegram YouTube

Sí, usamos cookies. Puedes ver para qué las usamos y cómo quitarlas o simplemente puedes aceptarlo.