RebeldeMule

El carnaval de Notting Hill (Don Letts, 2009)

Historia, ciencia, sociedad, política y esos conceptos.
El carnaval de Notting Hill
Carnival!
Don Letts (Reino Unido, 2009) [48 min]

Portada
IMDb


Sinopsis:

    La historia de la fiesta callejera más grande de Europa. El carnaval de Notting Hill empezó en 1959 como respuesta a la peor ola de violencia racial vivida hasta el momento en Londres. Se juntaron más de cien personas de origen caribeño, usando la música y el baile como una muestra de armonía. Medio siglo después esta celebración de la diversidad atrae a más de un millón de personas a Londres cada año. Con una mezcla de actualidad y de historia, mostramos los testimonios de jóvenes y mayores, blancos y negros, famosos y residentes del barrio. Todo esto acompañado de imágenes de archivo nunca vistas y una banda sonara increíble.

Ficha técnica


Intervenciones:





:str: Ver avance:





¿?Rip VE - AVI (Gracias a balkiria)
detalles técnicos u otros: mostrar contenido
General
Complete name : /home/tele/Público/Archivo/Documentales/C/El carnaval de Notting Hill (Don Letts, 2009).avi
Format : AVI
Format/Info : Audio Video Interleave
File size : 501 MiB
Duration : 47mn 3s
Overall bit rate : 1 487 Kbps
Writing application : VirtualDubMod 1.5.4.1 (build 2178/release)
Writing library : VirtualDubMod build 2178/release

Video
ID : 0
Format : MPEG-4 Visual
Format profile : Advanced Simple@L5
Format settings, BVOP : 1
Format settings, QPel : No
Format settings, GMC : No warppoints
Format settings, Matrix : Custom
Codec ID : XVID
Codec ID/Hint : XviD
Duration : 47mn 3s
Bit rate : 1 352 Kbps
Width : 640 pixels
Height : 400 pixels
Display aspect ratio : 16:10
Frame rate : 25.000 fps
Color space : YUV
Chroma subsampling : 4:2:0
Bit depth : 8 bits
Scan type : Progressive
Compression mode : Lossy
Bits/(Pixel*Frame) : 0.211
Stream size : 455 MiB (91%)
Writing library : XviD 1.2.1 (UTC 2008-12-04)

Audio
ID : 1
Format : MPEG Audio
Format version : Version 1
Format profile : Layer 3
Mode : Joint stereo
Mode extension : MS Stereo
Codec ID : 55
Codec ID/Hint : MP3
Duration : 47mn 3s
Bit rate mode : Constant
Bit rate : 128 Kbps
Channel(s) : 2 channels
Sampling rate : 48.0 KHz
Compression mode : Lossy
Stream size : 43.1 MiB (9%)
Alignment : Aligned on interleaves
Interleave, duration : 80 ms (2.00 video frames)
Interleave, preload duration : 504 ms
Writing library : LAME3.98.2





:str: Reproducción:


Volver a Cine documental

Antes de empezar, un par de cosas:

Puedes usar las redes sociales para enterarte de las novedades o ayudarnos a difundir lo que encuentres.
Si ahora no te apetece, puedes hacerlo cuando quieras con los botones de arriba.

Facebook Twitter
Telegram YouTube

Sí, usamos cookies. Puedes ver para qué las usamos y cómo quitarlas o simplemente puedes aceptarlo.