RebeldeMule

The Miami Model (Indymedia, 2004)

Historia, ciencia, sociedad, política y esos conceptos.
The Miami Model
Indymedia (EEUU, 2004) [91 min]

Portada
IMDb
(Wikipedia)


Sinopsis: Los ministros de comercio de 34 países se reunieron en Miami para planear el Área de Libre Comercio de las Américas en noviembre de 2003. Esta estructura económica transnacional, el ALCA, destruía cualquier orden mantenido hasta el momento, el medio ambiente, los derechos laborales y los servicios públicos, en todo el Hemisferio Sur. Para hacer frente al ALCA, actuando en contra de los ideales capitalistas de opresión paramilitar, de guerra informativa y de obtención de lucro a toda costa, miles de activistas internacionales convergieron en Miami para mostrar su resistencia, su acción creativa y su solidaridad internacional.

Otros comentarios:
En noviembre de 2003, ministros del comercio de 34 paises se reúnen para planear el Area de Libre Comercio de las Americas (ALCA). El ALCA podría arrazar con el medio ambiente, los derechos laborales y los servicios públicos como la salud, la educación, el acceso público al agua y destruir los derechos de las comunidades indigenas y la diversidad cultural en todo el Hemisferio Sur.

Actuando en contra de los ideales capitalistas de opresión paramilitar, guerra informativa y obtención de lucro a toda costa, miles de personas convergen en Miami para mostrar su resistencia creativa y su solidaridad internacional.

rompiendo el boycot mediatico

Activistas de indymedia tomaron cientas de horas de material video documentando las protestas contra el ALCA en Miami. Este material fue editado por el grupo de video de ALCA indymedia para realizar un documental que rompe el boycot de los medios de masas para revelar la brutalidad de la represión y el asalto a las libertades civiles que hubo en Miami durante la contra cumbre. Tambien nos muestra las luchas y las alternativas a modelo que globalización capitalista que desarrollo el movimiento en Miami.

Lecciones para las contra cumbres (por ejemplo G8 en Heiligendamm 2007)

En Miami las autoridades optaron por una represión dura que afectó a sindicalistas, a periodistas y a activitas de la misma manera. Los metodos utilizados por el ejercito estadounidense durant la guerra en Irak feron simplemente adaptados a las conflictos callejeros de Miami.

La película documenta entre otras cosas la utilización de armas dichas "no mortales" como los ’tasers’ o pistolas a electrochoques.

La estrategia para controlar la cobertura mediatica se llama "embedded journalism": equipos de periodistas de las grandes cadenas van directamente escortados y dirigidos por unidades policiales. Estas no garantizan la seguridad de todo periodista "no-embedded".

Como el documental pone en común material filmado por muchas activistas diferentes que participaron en las movilizaciones, descubrimos una diversidad y una creatividad impresionante en las formas de resistencia y de lucha social.


Licencia: CC. Atribución-No comercial-Sin obra derivada. 2.0 Alemania




DVDRip VO+S - AVI (XviD+MP3) [674 Mb]
detalles técnicos u otros: mostrar contenido
General
Complete name : The Miami Model (Indymedia, 2004).avi
Format : AVI
Format/Info : Audio Video Interleave
File size : 674 MiB
Duration : 1h 31mn
Overall bit rate : 1 032 Kbps
Movie name : The Miami Model
Director : ftaaimc.org video working group
Genre : indymedia
Writing application : MEncoder 1.0pre6-3.2.3
Writing library : MPlayer
Copyright : creative commons by-nc-sa

Video
ID : 0
Format : MPEG-4 Visual
Format profile : Simple@L3
Format settings, BVOP : 1
Format settings, QPel : No
Format settings, GMC : No warppoints
Format settings, Matrix : Default (H.263)
Codec ID : XVID
Codec ID/Hint : XviD
Duration : 1h 31mn
Bit rate : 890 Kbps
Width : 640 pixels
Height : 480 pixels
Display aspect ratio : 4:3
Frame rate : 29.970 fps
Color space : YUV
Chroma subsampling : 4:2:0
Bit depth : 8 bits
Scan type : Progressive
Compression mode : Lossy
Bits/(Pixel*Frame) : 0.097
Stream size : 581 MiB (86%)
Writing library : XviD 1.0.1 (UTC 2004-06-05)

Audio
ID : 1
Format : MPEG Audio
Format version : Version 1
Format profile : Layer 3
Mode : Joint stereo
Mode extension : MS Stereo
Codec ID : 55
Codec ID/Hint : MP3
Duration : 1h 31mn
Bit rate mode : Constant
Bit rate : 128 Kbps
Channel(s) : 2 channels
Sampling rate : 48.0 KHz
Compression mode : Lossy
Stream size : 83.6 MiB (12%)
Alignment : Aligned on interleaves
Interleave, duration : 24 ms (0.72 video frame)
Interleave, preload duration : 504 ms
Writing library : LAME3.93







[ Add all 2 links to your ed2k client ]

subtitulos!

Nota Mié Ene 16, 2008 12:08 am
ahi les dejo 2 enlaces con los subtitulos en str!. en español

salud!

Descarga directa desde fileden

Descarga con Pando

Nota Mié Ene 16, 2008 12:25 am
Gracias pabloe, los añado a la principal y los subo también a Subdivx que nunca se sabe.

Ah, y edito las etiquetas url de tu mensaje para que no se ensanche el foro.

Saludos.

Nota Mar Oct 14, 2008 10:18 am
Muchas gracias por el documental.

Es muy bueno. Y me resultó especialmente interesante la reflexión final acerca de la violencia y la lucha en la calle. Es el eterno debate, pero éste me pareció un buen aporte, sencillo pero bastante lúcido.
Os factos som teimosos e de bom ou mau grado há qué tê-los em conta.

Independência e Sozialismo!



Volver a Cine documental

Antes de empezar, un par de cosas:

Puedes usar las redes sociales para enterarte de las novedades o ayudarnos a difundir lo que encuentres.
Si ahora no te apetece, puedes hacerlo cuando quieras con los botones de arriba.

Facebook Twitter
Telegram YouTube

Sí, usamos cookies. Puedes ver para qué las usamos y cómo quitarlas o simplemente puedes aceptarlo.