RebeldeMule

Distinguished Flying Cross (Travis Wilkerson, 2011)

Historia, ciencia, sociedad, política y esos conceptos.
Distinguished Flying Cross
Travis Wilkerson (EE.UU. de América, 2011) [61 min]


IMDb
(Filmaffinity)


Sinopsis:

Roger Koza, en "Arqueología del presente", en El Cinematógrafo, el 31 de marzo de 2018, escribió:[...] La cultura familiar no será un tema menor para Wilkerson, como puede constatarse en "Distinguished Flying Cross", el peculiar autorretrato en el que el padre del director cuenta a sus dos hijos sus hazañas como piloto en la guerra de Vietnam, discurso interrumpido por secuencias con material de archivo filmado en el propio terreno de enfrentamiento que desmiente el tono anecdótico del relato familiar.

Roger Koza, en "Doc Buenos Aires 2018: Reseñas del foco dedicado a Travis Wilkerson", en Otros Cine, el 17 de octubre de 2018, escribió:[...] El mandato fundacional del cine estadounidense no ha sido otro que contar la historia de la nación. Un período siniestro de ésta es la Guerra de Vietnam. William Wilkerson recuerda frente a sus dos hijos (Travis es uno de ellos) su paso por Vietnam como piloto, por lo que obtuvo una condecoración a la que remite el título. La circunspecta emoción del veterano de guerra tiene un tono moderadamente patriótico hasta llegar al final, cuando la guerra se define como racista y criminal, conclusión sorpresiva si se ha atendido al discurso paterno, pero lógica si se prefiere hallar el punto de vista del film en la fuerza expresiva de varios materiales de archivo que Wilkerson emplea como breves pausas al diálogo familiar y que funcionan dialécticamente con respecto al relato paterno. Así, las hazañas del padre devienen en recuerdos banales frente a la revelación de las imágenes anónimas que demuestran la crueldad de la milicia estadounidense y la absoluta falta de códigos en el campo de batalla.


Ficha técnica

    Guión: Travis Wilkerson.
    Fotografía: Kelly Parker.
    Sonido: Dave Irish.
    Música: Butte People's Orchestra, unknown cambodian musicians, Ensemble Anton Webern.
    Edición: Travis Wilkerson.

Intervenciones:

  • William M. Wilkerson Jr. M.D.
  • Dylan M. Wilkerson.
  • Travis A. Wilkerson.




Secuencias






DVDRip VO - MKV (fuente)
detalles técnicos u otros: mostrar contenido
General
Unique ID : 199795193487539143596034653668041523013 (0x964F2793181D5081ABBFB06478F77F45)
Complete name : Distinguished Flying Cross.mkv
Format : Matroska
Format version : Version 4
File size : 889 MiB
Duration : 1 h 2 min
Overall bit rate : 1 993 kb/s
Encoded date : UTC 2017-02-09 20:43:07
Writing application : mkvmerge v9.6.0 ('Slave To Your Mind') 64bit
Writing library : libebml v1.3.4 + libmatroska v1.4.5

Video
ID : 1
Format : AVC
Format/Info : Advanced Video Codec
Format profile : High@L4.1
Format settings : CABAC / 8 Ref Frames
Format settings, CABAC : Yes
Format settings, RefFrames : 8 frames
Codec ID : V_MPEG4/ISO/AVC
Duration : 1 h 2 min
Bit rate : 1 800 kb/s
Width : 720 pixels
Height : 480 pixels
Display aspect ratio : 4:3
Frame rate mode : Constant
Frame rate : 23.976 (24000/1001) FPS
Color space : YUV
Chroma subsampling : 4:2:0
Bit depth : 8 bits
Scan type : Progressive
Bits/(Pixel*Frame) : 0.217
Stream size : 802 MiB (90%)
Writing library : x264 core 148 r2638 7599210
Encoding settings : cabac=1 / ref=8 / deblock=1:-3:-3 / analyse=0x3:0x133 / me=umh / subme=10 / psy=1 / psy_rd=1.00:0.15 / mixed_ref=1 / me_range=32 / chroma_me=1 / trellis=2 / 8x8dct=1 / cqm=0 / deadzone=21,11 / fast_pskip=0 / chroma_qp_offset=-3 / threads=8 / lookahead_threads=2 / sliced_threads=0 / nr=0 / decimate=0 / interlaced=0 / bluray_compat=0 / constrained_intra=0 / bframes=10 / b_pyramid=2 / b_adapt=2 / b_bias=0 / direct=1 / weightb=1 / open_gop=0 / weightp=2 / keyint=240 / keyint_min=23 / scenecut=40 / intra_refresh=0 / rc_lookahead=60 / rc=2pass / mbtree=1 / bitrate=1800 / ratetol=1.0 / qcomp=0.60 / qpmin=0 / qpmax=69 / qpstep=4 / cplxblur=20.0 / qblur=0.5 / vbv_maxrate=14000 / vbv_bufsize=14000 / nal_hrd=none / filler=0 / ip_ratio=1.40 / aq=1:1.00
Default : Yes
Forced : No

Audio
ID : 2
Format : AC-3
Format/Info : Audio Coding 3
Commercial name : Dolby Digital
Codec ID : A_AC3
Duration : 1 h 2 min
Bit rate mode : Constant
Bit rate : 192 kb/s
Channel(s) : 2 channels
Channel layout : L R
Sampling rate : 48.0 kHz
Frame rate : 31.250 FPS (1536 SPF)
Bit depth : 16 bits
Compression mode : Lossy
Stream size : 85.6 MiB (10%)
Language : English
Service kind : Complete Main
Default : Yes
Forced : No


Volver a Cine documental

Antes de empezar, un par de cosas:

Puedes usar las redes sociales para enterarte de las novedades o ayudarnos a difundir lo que encuentres.
Si ahora no te apetece, puedes hacerlo cuando quieras con los botones de arriba.

Facebook Twitter
Telegram YouTube

Sí, usamos cookies. Puedes ver para qué las usamos y cómo quitarlas o simplemente puedes aceptarlo.