RebeldeMule

Panteras Negras: vanguardia de... (Stanley Nelson Jr., 2015)

Historia, ciencia, sociedad, política y esos conceptos.
Panteras Negras: vanguardia de la revolución
The Black Panthers: Vanguard of the Revolution
Stanley Nelson Jr. (EE.UU. de América, 2015) [113 min]

Portada
IMDb
(Wikipedia | Filmaffinity)


Sinopsis:

    [fuente] Largometraje documental sobre el denominado Black Panther Party, despertar cultural y político para la raza negra. El documentalista Stanley Nelson, trabaja con material de archivo, utilizando las voces de las personas que estaban allí: policías, informantes del FBI, periodistas, defensores y detractores, blancos y "black panthers" que permanecieron leales al partido, o salieron de él.

Lucien, en "Una introducción al tema con freno y marcha atrás", en Filmaffinity, el 17 de diciembre de 2016, escribió:La rehistorización afroamericana está de enhorabuena. En los últimos años, puede palparse, quizá como agudo contraste a la pervivencia de la brutalidad policial, una revalorización del gran aporte cultural de la comunidad negra estadounidense. Así, junto a series y documentales que exploran la crónica artística del hip-hop, han comenzado a salir a la luz abundantes publicaciones sobre el legado de la Panteras Negras. A ellas debemos sumar ahora el documental firmado por Stanley Nelson.

Nos encontramos ante un trabajo recomendable como introducción a un capítulo fascinante, complejo y problemático de los Estados Unidos. Sin embargo, más allá de la atención a figuras importantes (el director no olvida a Huey Newton, Bobby Seale, Fred Hampton, Eldridge y Kathleen Cleaver) y más de una declarada intención de imparcialidad, lo que queda del documental para quien algo ha leído sobre el tema es la sensación de superficialidad y, me atrevería a decir, incomodidad política. El director pasa reiteradamente por encima aspectos importantes de la narrativa de los Black Panther. Hay una impresión general no solo de déjà vu, sino de no querer mojarse. Parece un automóvil que ya en marcha echara el freno y volviera marcha atrás. Y uno se pregunta por qué el filme omite las razones de la detención de Newton, por qué omite el caso de Jean Seberg que tanta repercusión internacional tuvo en su momento, los sucesos acaecidos en UCLA y en los que parece reiterarse la pauta de los episodios de Illinois, por qué se evita hablar con más claridad de los disturbios de Watts o por qué se pasa por encima de las conexiones estructurales entre Black Panther y la lucha cubana, la causa de Malcolm X, la lucha de Angela Davis y su Critical Resistance. Son demasiadas la omisiones (y tan ideológicamente relevantes) como para achacarlas a una limitación de tiempo. Es como si, para hacer el producto más digerible a las mentalidades acomodaticias de la clase media de PBS, se prescindiera de la dimensión política de la que se origina el movimiento. Por todo ello, la meritoria contribución de Nelson se queda al final a medio camino: una introducción valiosa, pero de poco recorrido.


Ficha técnica


Intervenciones:


Premios:

    2015: National Board Review (NBR): Mejores documentales del año.

Idioma original: Inglés.





TVRip VOS - MP4 (fuente)
detalles técnicos u otros: mostrar contenido
General
Complete name : The Black Panthers Vanguard Of The Revolution (Stanley Nelson, 2015).mp4
Format : MPEG-4
Format profile : Base Media
Codec ID : isom (isom/iso2/avc1/mp41)
File size : 349 MiB
Duration : 1 h 53 min
Overall bit rate : 430 kb/s
Movie name : 'The Black Panthers Vanguard Of The Revolution' Full Film Documentary 2015
Performer : EverybodyGotta BeSomewhere
Recorded date : 2016
Writing application : Lavf55.49.100
Comment : https://www.youtube.com/watch?v=6bcubkt6BwY

Video
ID : 1
Format : AVC
Format/Info : Advanced Video Codec
Format profile : Main@L3
Format settings : CABAC / 3 Ref Frames
Format settings, CABAC : Yes
Format settings, RefFrames : 3 frames
Codec ID : avc1
Codec ID/Info : Advanced Video Coding
Duration : 1 h 53 min
Bit rate : 297 kb/s
Width : 640 pixels
Height : 360 pixels
Display aspect ratio : 16:9
Frame rate mode : Constant
Frame rate : 29.970 (30000/1001) FPS
Color space : YUV
Chroma subsampling : 4:2:0
Bit depth : 8 bits
Scan type : Progressive
Bits/(Pixel*Frame) : 0.043
Stream size : 241 MiB (69%)
Codec configuration box : avcC

Audio
ID : 2
Format : AAC LC
Format/Info : Advanced Audio Codec Low Complexity
Codec ID : mp4a-40-2
Duration : 1 h 53 min
Bit rate mode : Constant
Bit rate : 126 kb/s
Channel(s) : 2 channels
Channel layout : L R
Sampling rate : 44.1 kHz
Frame rate : 43.066 FPS (1024 SPF)
Compression mode : Lossy
Stream size : 102 MiB (29%)
Default : Yes
Alternate group : 1





HDTV VOS - MKV (x264-W4F) (de Rebeldemule)
detalles técnicos u otros: mostrar contenido
General
Unique ID : 308082643093560126284221561252065201118 (0xE7C68F0B6B2EDDC5A15C553D6B064BDE)
Format : Matroska
Format version : Version 4
File size : 795 MiB
Duration : 1 h 54 min
Overall bit rate : 971 kb/s
Encoded date : UTC 2018-11-06 22:04:49
Writing application : mkvmerge v28.2.0 ('The Awakening') 64-bit
Writing library : libebml v1.3.6 + libmatroska v1.4.9

Video
ID : 1
Format : AVC
Format/Info : Advanced Video Codec
Format profile : High@L3.1
Format settings : CABAC / 5 Ref Frames
Format settings, CABAC : Yes
Format settings, RefFrames : 5 frames
Codec ID : V_MPEG4/ISO/AVC
Duration : 1 h 53 min
Bit rate : 866 kb/s
Width : 720 pixels
Height : 404 pixels
Display aspect ratio : 16:9
Frame rate mode : Constant
Frame rate : 23.976 (24000/1001) FPS
Color space : YUV
Chroma subsampling : 4:2:0
Bit depth : 8 bits
Scan type : Progressive
Bits/(Pixel*Frame) : 0.124
Stream size : 703 MiB (88%)
Writing library : x264 core 148 r2665 a01e339
Encoding settings : cabac=1 / ref=5 / deblock=1:0:0 / analyse=0x3:0x113 / me=umh / subme=8 / psy=1 / psy_rd=1.00:0.00 / mixed_ref=1 / me_range=16 / chroma_me=1 / trellis=1 / 8x8dct=1 / cqm=0 / deadzone=21,11 / fast_pskip=1 / chroma_qp_offset=-2 / threads=12 / lookahead_threads=2 / sliced_threads=0 / nr=0 / decimate=1 / interlaced=0 / bluray_compat=0 / constrained_intra=0 / bframes=3 / b_pyramid=2 / b_adapt=2 / b_bias=0 / direct=3 / weightb=1 / open_gop=0 / weightp=2 / keyint=250 / keyint_min=25 / scenecut=40 / intra_refresh=0 / rc_lookahead=50 / rc=crf / mbtree=1 / crf=21.0 / qcomp=0.60 / qpmin=0 / qpmax=69 / qpstep=4 / ip_ratio=1.40 / aq=1:1.00
Default : Yes
Forced : No
Color range : Limited
Matrix coefficients : BT.709

Audio
ID : 2
Format : AAC LC
Format/Info : Advanced Audio Codec Low Complexity
Codec ID : A_AAC-2
Duration : 1 h 53 min
Bit rate : 111 kb/s
Channel(s) : 2 channels
Channel layout : L R
Sampling rate : 48.0 kHz
Frame rate : 46.875 FPS (1024 SPF)
Compression mode : Lossy
Delay relative to video : -83 ms
Stream size : 89.7 MiB (11%)
Language : English
Default : Yes
Forced : No

Text #1
ID : 3
Format : UTF-8
Codec ID : S_TEXT/UTF8
Codec ID/Info : UTF-8 Plain Text
Duration : 1 h 54 min
Bit rate : 111 b/s
Count of elements : 2184
Stream size : 93.5 KiB (0%)
Title : Deutsch
Language : German
Default : No
Forced : No

Text #2
ID : 4
Format : UTF-8
Codec ID : S_TEXT/UTF8
Codec ID/Info : UTF-8 Plain Text
Duration : 1 h 54 min
Bit rate : 101 b/s
Count of elements : 2141
Stream size : 85.0 KiB (0%)
Title : English [C.C.]
Language : English
Default : No
Forced : No

Text #3
ID : 5
Format : UTF-8
Codec ID : S_TEXT/UTF8
Codec ID/Info : UTF-8 Plain Text
Duration : 1 h 54 min
Bit rate : 92 b/s
Count of elements : 2222
Stream size : 77.5 KiB (0%)
Title : Castelllano
Language : Spanish
Default : No
Forced : No

Text #4
ID : 6
Format : UTF-8
Codec ID : S_TEXT/UTF8
Codec ID/Info : UTF-8 Plain Text
Duration : 1 h 54 min
Bit rate : 95 b/s
Count of elements : 2176
Stream size : 80.1 KiB (0%)
Title : Français
Language : French
Default : No
Forced : No

Text #5
ID : 7
Format : UTF-8
Codec ID : S_TEXT/UTF8
Codec ID/Info : UTF-8 Plain Text
Duration : 1 h 54 min
Bit rate : 95 b/s
Count of elements : 2222
Stream size : 80.2 KiB (0%)
Title : Italiano
Language : Italian
Default : No
Forced : No





HDTVRip VO - MKV [2.6 Gb]





Relacionado:



[ Add all 2 links to your ed2k client ]

Volver a Cine documental

Antes de empezar, un par de cosas:

Puedes usar las redes sociales para enterarte de las novedades o ayudarnos a difundir lo que encuentres.
Si ahora no te apetece, puedes hacerlo cuando quieras con los botones de arriba.

Facebook Twitter
Telegram YouTube

Sí, usamos cookies. Puedes ver para qué las usamos y cómo quitarlas o simplemente puedes aceptarlo.