RebeldeMule

The Square (Jehane Noujaim, 2013)

Historia, ciencia, sociedad, política y esos conceptos.
The Square
The Square (Al Midan)
Jehane Noujaim (Egipto, EE.UU. de América; 2013) [108 min]

Portada
IMDb
(Wikipedia | Filmaffinity)


Sinopsis:

    [propia] Perspectiva en caliente de la insurrección egipcia, inicio de la llamada Primavera Árabe, contra el gobierno proestadounidense de Hosni Mubarak, así como su inmediata evolución, a través de varios de sus implicados de distinta tendencia.

En "The Square (Documental) Egipto- Jehane Noujaim", en El Cine por Montera, escribió:[...] La directora decide personalizar la revolución por medio de tres personajes que le generan una gran empatía. Tres personas de distinto estatus social; en nada se parecen sus vidas, aparentemente contrapuestas. Khalid Abdalla nació en Glasgow en 1980 (Escocia), de padres egipcios, es un actor que alcanzó fama internacional después de protagonizar en 2006 la película ganadora de los BAFTA, "United 93". Inspirado por el activismo de su padre que fue encarcelado en Egipto en los años 70 y ha vivido en el exilio, Khalid deja su vida en Londres para unirse a la revolución. Magdy Ashour, un revolucionario comprometido que apoya a los Hermanos Musulmanes desde hace 25 años, aunque su posición está muy lejos del radicalismo. Sufrió en sus propias carnes la tortura del régimen. Y por último Ahmed Hassan, un joven que creció en el barrio obrero de Shobra, en la periferia de la capital egipcia. Sueña con una sociedad de conciencia cívica, de libertad y de respeto. Cree ciegamente en el triunfo de la revolución.

Jehane Noujaim, la directora, en entrevista para Global Voices en Español, el 22 de febrero de 2014, escribió:[...] "The Square" no es la pieza seminal sobre la revolución en Egipto. No creo que alguien pueda asumir esa posición. No es una pieza periodística y no pretende contar toda la historia de la revolución. Tampoco es una representación “sesgada”, “inocente” o “peligrosa” de la política egipcia, como algunas personas han sugerido. Este es un documental fehaciente acerca del trayecto de un puñado de personajes en la Plaza Tahrir; habla de sus orígenes distintos pero también de cómo su firmeza para no sacrificar sus ideales los une. Es una historia sobre la grandeza que emerge del caos. Mi responsabilidad como directora fue contar sus historias de manera honesta y llevar al público a conocerlos a profundidad. A final de cuentas no es un filme sobre la revolución egipcia sino sobre egipcios que están viviéndola.


Ficha técnica


Intervenciones:


Premios:

    2013: Premios Oscar: Nominado a Mejor largometraje documental.
    2013: Festival de Toronto: Mejor documental.
    2013: Festival de Sundance: Sección oficial documentales internacionales a concurso.
    2013: National Board of Review (NBR): Mejores documentales del año.
    2013: Premios Independent Spirit: Nominada a Mejor documental.
    2013: Satellite Awards: Nominada a mejor documental.
    2013: Sindicato de Directores (DGA): Mejor director / Documental.

Idioma original: Árabe, inglés.





Secuencias (capturas del WEB-DL VOS de )






WEB-DL VOS - MP4 (fuente)
detalles técnicos u otros: mostrar contenido
General
Format : MPEG-4
Format profile : Base Media / Version 2
Codec ID : mp42 (isom/mp42)
File size : 1.15 GiB
Duration : 1 h 41 min
Overall bit rate mode : Variable
Overall bit rate : 1 609 kb/s
Encoded date : UTC 2014-01-16 19:33:09
Tagged date : UTC 2014-01-16 19:33:09
gsst : 0
gstd : 6114556
gssd : B4A7D0004HH1390085695294896
gshh : r16---sn-ab5e6nlz.googlevideo.com

Video
ID : 1
Format : AVC
Format/Info : Advanced Video Codec
Format profile : High@L3.1
Format settings : CABAC / 1 Ref Frames
Format settings, CABAC : Yes
Format settings, RefFrames : 1 frame
Codec ID : avc1
Codec ID/Info : Advanced Video Coding
Duration : 1 h 41 min
Bit rate : 1 464 kb/s
Maximum bit rate : 8 426 kb/s
Width : 1 280 pixels
Height : 720 pixels
Display aspect ratio : 16:9
Frame rate mode : Constant
Frame rate : 10.000 FPS
Color space : YUV
Chroma subsampling : 4:2:0
Bit depth : 8 bits
Scan type : Progressive
Bits/(Pixel*Frame) : 0.159
Stream size : 1.04 GiB (91%)
Tagged date : UTC 2014-01-16 19:37:26
Codec configuration box : avcC

Audio
ID : 2
Format : AAC LC
Format/Info : Advanced Audio Codec Low Complexity
Codec ID : mp4a-40-2
Duration : 1 h 41 min
Bit rate mode : Variable
Bit rate : 144 kb/s
Maximum bit rate : 150 kb/s
Channel(s) : 1 channel
Channel layout : C
Sampling rate : 44.1 kHz
Frame rate : 43.066 FPS (1024 SPF)
Compression mode : Lossy
Stream size : 105 MiB (9%)
Title : IsoMedia File Produced by Google, 5-11-2011
Encoded date : UTC 2014-01-16 19:36:09
Tagged date : UTC 2014-01-16 19:37:26


Volver a Cine documental

Antes de empezar, un par de cosas:

Puedes usar las redes sociales para enterarte de las novedades o ayudarnos a difundir lo que encuentres.
Si ahora no te apetece, puedes hacerlo cuando quieras con los botones de arriba.

Facebook Twitter
Telegram YouTube

Sí, usamos cookies. Puedes ver para qué las usamos y cómo quitarlas o simplemente puedes aceptarlo.