RebeldeMule

Copyright Criminals (Benjamin Franzen, Kembrew McLeod, 2009)

Historia, ciencia, sociedad, política y esos conceptos.
Copyright Criminals
Benjamin Franzen, Kembrew McLeod (EE.UU. de América, 2009) [65 min]

Portada
IMDb
(Wikipedia | Filmaffinity | Página oficial)


Sinopsis:

    [fuente] Documental que examina el valor creativo y comercial del muestreo o sampleo musical.

Jorge León, en "'Copyrights Criminals', recomendación sobre derechos de autor", en su blog, el 18 de noviembre de 2014, escribió:Con arte explicamos la actualidad sobre las leyes de los derechos de autor. Un documental nos aclara la perspectiva de los legisladores ante la modernidad.
Copyright Criminals, es un documental de 2009 dirigido por Benjamin Franzen en donde examina la creatividad y el valor comercial del muestreo, técnica utilizada por muchos músicos de hip hop y dj´s.

El muestreo es una técnica donde se realiza un montaje de audio con una porción o muestra de una grabación para reutilizarla y así crear una nueva obra.

El documental Copyright Criminals expone el debate que se presenta entre los músicos que se dedican al muestreo y los defensores de las leyes sobre derechos de autor. En estricto sentido, las leyes internacionales dictan que el autor tiene el derecho a oponerse que su obra sea utilizada y modificada en parte o en su totalidad.

Pero la actividad de músicos como los entrevistados en el documental, debe abrir un nuevo panorama para los legisladores mundiales sobre las actuales formas de creación musical gracias a los avances tecnológicos.


Ficha técnica

    Guión: Libro: Kembrew McLeod.
    Fotografía: Benjamin Franzen , Ross Sebek.
    Productora: Changing Images, Copyright Criminals.

Intervenciones:

    Aesop Rock, George Clinton, Chuck D., El-P., Sage Francis, Pam the Funsktress, Bobbito Garcia, Miho Hatori, Humpty Hump, Mr. Len, Mix Master Mike, Prefuse 73.

Idioma original: Inglés.





WEB-DL VO - MOV (X264/AVC+PCM) [1.13 Gb]
detalles técnicos u otros: mostrar contenido
General
Complete name: Copyright Criminals (B. Franzen, K. McLeod, 2009).VOSEs.mov
Format: MPEG-4
Format profile: QuickTime
Codec ID: qt 2005.03 (qt )
File size: 1.13 GiB
Duration: 53mn 25s
Overall bit rate: 3 015 Kbps
Writing library: Apple QuickTime
Media/UUID: 4F71C561-CEB9-4AD5-8D10-8FC4ABFC656E

Video
ID: 1
Format: AVC
Format/Info: Advanced Video Codec
Format profile: Main@L3.1
Format settings, CABAC: No
Format settings, ReFrames: 2 frames
Codec ID: avc1
Codec ID/Info: Advanced Video Coding
Duration: 53mn 25s
Source duration: 53mn 26s
Bit rate: 1 467 Kbps
Width: 960 pixels
Height: 540 pixels
Display aspect ratio: 16:9
Frame rate mode: Constant
Frame rate: 29.970 (29970/1000) fps
Color space: YUV
Chroma subsampling: 4:2:0
Bit depth: 8 bits
Scan type: Progressive
Bits/(Pixel*Frame): 0.094
Stream size: 561 MiB (49%)

Audio
ID: 2
Format: PCM
Format settings, Endianness: Little
Format settings, Sign: Signed
Codec ID: sowt
Duration: 53mn 25s
Bit rate mode: Constant
Bit rate: 1 536 Kbps
Channel(s): 2 channels
Channel positions: Front: L R
Sampling rate: 48.0 KHz
Bit depth: 16 bits
Stream size: 587 MiB (51%)
Language: English+





:str: Reproducción:


Volver a Cine documental

Antes de empezar, un par de cosas:

Puedes usar las redes sociales para enterarte de las novedades o ayudarnos a difundir lo que encuentres.
Si ahora no te apetece, puedes hacerlo cuando quieras con los botones de arriba.

Facebook Twitter
Telegram YouTube

Sí, usamos cookies. Puedes ver para qué las usamos y cómo quitarlas o simplemente puedes aceptarlo.