RebeldeMule

De Echevarría a Etxeberria (Ander Iriarte, 2014)

Historia, ciencia, sociedad, política y esos conceptos.
De Echevarría a Etxeberria
Echevarriatik – Etxeberriara
Ander Iriarte (Euskal Herria, 2014) [91 min]

Portada
IMDb
(Filmaffinity I Página oficial )


Sinopsis:

    A partir exclusivamente de gente que vive o es natural de Oiartzun, el documental tratará de indagar la importancia que ha tenido la violencia dentro del mundo de la izquierda abertzale, entendiendo esta como un grupo grande y heterogéneo. La Violencia, eso sí, expresada en sus diversas formas. Para ello, el director se centra en su pueblo natal para intentar responder a una serie de preguntas que le acompañan desde que hace 8 años se mudó a Barcelona. ¿Por qué él no acabó siguiendo los pasos de entrar en ETA como otros sí hicieron?

Comentario personal:

    Documental interesante, lo vi cuando lo pasaron en el festival de cine y derechos humanos de Donostia. Su gran virtud es que nos habla desde un punto demasiadas veces silenciado. Y su defecto es que en todo eso que llamamos la izquierda abertzale, nos habla desde un punto de vista concreto. Es decir, interesante forma de adentrarse en un sector político tabú, pero a veces resulta muy personal.

Ficha técnica

    Guión: Ander Iriarte.
    Música: Oreka TX.
    Fotografía: María Codina.
    Productora: Escac Films.

Reparto: Documentary.

Idioma original: Euskara.





BDRip VOS - MP4 (X264/AVC+AAC) [950 Mb]
detalles técnicos u otros: mostrar contenido
General
Complete name : C:\Users\Ivanchuki\Desktop\De Echevarria a Etxeberria.mp4
Format : MPEG-4
Format profile : Base Media
Codec ID : isom
File size : 951 MiB
Duration : 1h 31mn
Overall bit rate : 1 454 Kbps
Encoded date : UTC 2016-08-13 11:38:58
Tagged date : UTC 2016-08-13 11:38:58
Writing application : FormatFactory

Video
Format : AVC
Format/Info : Advanced Video Codec
Format profile : High@L3.0
Format settings, CABAC : No
Format settings, ReFrames : 1 frame
Codec ID : avc1
Codec ID/Info : Advanced Video Coding
Duration : 1h 31mn
Bit rate mode : Variable
Bit rate : 1 330 Kbps
Maximum bit rate : 6 750 Kbps
Width : 1 280 pixels
Height : 720 pixels
Display aspect ratio : 16/9
Frame rate mode : Constant
Frame rate : 25.000 fps
Resolution : 24 bits
Colorimetry : 4:2:0
Scan type : Progressive
Bits/(Pixel*Frame) : 0.058
Stream size : 867 MiB (91%)
Writing library : x264 core 148 r2665 a01e339
Encoding settings : cabac=0 / ref=1 / deblock=1:0:0 / analyse=0x3:0x113 / me=hex / subme=7 / psy=1 / psy_rd=1.00:0.00 / mixed_ref=0 / me_range=16 / chroma_me=1 / trellis=1 / 8x8dct=1 / cqm=0 / deadzone=21,11 / fast_pskip=1 / chroma_qp_offset=-2 / threads=6 / lookahead_threads=1 / sliced_threads=0 / nr=0 / decimate=1 / interlaced=0 / bluray_compat=0 / constrained_intra=0 / bframes=0 / weightp=2 / keyint=250 / keyint_min=25 / scenecut=40 / intra_refresh=0 / rc_lookahead=40 / rc=abr / mbtree=1 / bitrate=1330 / ratetol=1.0 / qcomp=0.60 / qpmin=0 / qpmax=69 / qpstep=4 / ip_ratio=1.40 / aq=1:1.00
Encoded date : UTC 2016-08-13 11:38:58
Tagged date : UTC 2016-08-13 11:43:40

Audio
Format : AAC
Format/Info : Advanced Audio Codec
Format version : Version 4
Format profile : LC
Format settings, SBR : No
Codec ID : 40
Duration : 1h 31mn
Bit rate mode : Variable
Bit rate : 126 Kbps
Maximum bit rate : 257 Kbps
Channel(s) : 2 channels
Channel positions : L R
Sampling rate : 44.1 KHz
Resolution : 16 bits
Stream size : 82.1 MiB (9%)
Encoded date : UTC 2016-08-13 11:43:07
Tagged date : UTC 2016-08-13 11:43:40


Volver a Cine documental

Antes de empezar, un par de cosas:

Puedes usar las redes sociales para enterarte de las novedades o ayudarnos a difundir lo que encuentres.
Si ahora no te apetece, puedes hacerlo cuando quieras con los botones de arriba.

Facebook Twitter
Telegram YouTube

Sí, usamos cookies. Puedes ver para qué las usamos y cómo quitarlas o simplemente puedes aceptarlo.