RebeldeMule

120 horas (Ricard Salom, 2013)

Historia, ciencia, sociedad, política y esos conceptos.
120 horas
La tortura contra Euskal Herria
Ricard Salom (2013) [43 min]

Portada


Sinopsis: Cada vez que un ciudadano vasco es detenido en relación con el conflicto político que vive Euskal Herria denuncia haber sido torturado el estado español se ampara en el supuesto "manual de ETA para denunciar falsas torturas" o en "campañas de desprestigio de las instituciones". Pero la realidad es que la tortura es una práctica cruel y sistemática que el estado utiliza contra Euskal Herria y las personas que la componen. Recurriendo para ello a un engranaje de complicidades que la ocultan, dotando así de impunidad a los torturadores.
A través de una serie de entrevistas explicaremos que mecanismos posibilitan la tortura, por parte del estado español contra el pueblo vasco.

-Que objetivos tiene la tortura
-Que es la incomunicación
-El papel de los forenses, de los abogados de oficio y el de los jueces
-Lla impunidad
-Que medidas tomar para terminar con la tortura en las comisarias

Ficha técnica
Música: Kop- Tu voz estalla dentro.

Idioma original: Castellano.





BDRip VO - AVI (XviD+MP3)
detalles técnicos u otros: mostrar contenido
General
Complete name : D:\120 horas. La tortura contra Euskal Herria (Ricard Salom, 2013).avi
Format : AVI
Format/Info : Audio Video Interleave
File size : 700 MiB
Duration : 43mn 17s
Overall bit rate : 2 261 Kbps
Writing application : VirtualDubMod 1.5.4.1 (build 2178/release)
Writing library : VirtualDubMod build 2178/release

Video
Format : MPEG-4 Visual
Format profile : Streaming Video@L1
Format settings, BVOP : No
Format settings, QPel : No
Format settings, GMC : No warppoints
Format settings, Matrix : Custom
Codec ID : XVID
Codec ID/Hint : XviD
Duration : 43mn 17s
Bit rate : 2 143 Kbps
Width : 720 pixels
Height : 416 pixels
Display aspect ratio : 16/9
Frame rate : 25.000 fps
Resolution : 24 bits
Colorimetry : 4:2:0
Scan type : Progressive
Bits/(Pixel*Frame) : 0.286
Stream size : 663 MiB (95%)
Writing library : XviD 50

Audio
Format : MPEG Audio
Format version : Version 1
Format profile : Layer 3
Codec ID : 55
Codec ID/Hint : MP3
Duration : 43mn 17s
Bit rate mode : Variable
Bit rate : 105 Kbps
Minimum bit rate : 128 Kbps
Channel(s) : 2 channels
Sampling rate : 48.0 KHz
Resolution : 16 bits
Stream size : 32.6 MiB (5%)
Alignment : Aligned on interleaves
Interleave, duration : 24 ms (0.60 video frame)
Interleave, preload duration : 332 ms
Writing library : LAME3.98r
Encoding settings : ABR





:str: En streaming:


Volver a Cine documental

Antes de empezar, un par de cosas:

Puedes usar las redes sociales para enterarte de las novedades o ayudarnos a difundir lo que encuentres.
Si ahora no te apetece, puedes hacerlo cuando quieras con los botones de arriba.

Facebook Twitter
Telegram YouTube

Sí, usamos cookies. Puedes ver para qué las usamos y cómo quitarlas o simplemente puedes aceptarlo.