RebeldeMule

Gure kabuz ala hil / Autogestión o muerte (VVAA, 2015)

Historia, ciencia, sociedad, política y esos conceptos.
Autogestión o muerte
Gure kabuz ala hil
VV.AA. (España, 2015) [75 min]

Portada


Sinopsis:

    Jóvenes, precariedad, frustración, conformismo. Son palabras que oímos a menudo y muchas veces juntas. Pero habrá alternativas para las jóvenes de Euskal Herria, ¿no? Este documental nace desde esa pregunta. Hemos cruzado Euskal Herria de norte a sur para conocer proyectos que estén fuera de la lógica del capitalismo y que estén haciendo su propio camino basándose en la autogestión. Son muchos y muy variados: los hay sobre educación, vivienda, soberanía alimentaria, cuidados, artesanía, finanzas, fiestas, cultura... Día a día están demostrando que hay formas posibles y eficientes de hacer las cosas de otro modo. En este recorrido que hemos hecho nos hemos encontrado con alternativas variadas, pero hay una cosa que las une: hacer las cosas por nuestra cuenta, en grupo, en auzolan. Hemos visto que esa lógica es aplicable en todos los aspectos de la vida y que, de hecho, esa es la clave para salir de la mera supervivencia.

Ficha técnica

    Producción: Iraitz S. Zezeaga.
    Montaje: Eneritz A. Alustiza.
    Cámaras: Eneritz A. Alustiza, Iraitz S. Zezeaga, Oier B. Lazkano.

Idioma original: Euskera.





BDRip VO+S (XviD+AC3 2.0)
detalles técnicos u otros: mostrar contenido
General
Complete name : Gure kabuz ala hil (Autogestión o muerte, 2015).avi
Format : AVI
Format/Info : Audio Video Interleave
File size : 913 MiB
Duration : 1h 15mn
Overall bit rate : 1 690 Kbps
Writing application : VirtualDubMod 1.5.4.1 (build 2178/release)
Writing library : VirtualDubMod build 2178/release

Video
Format : MPEG-4 Visual
Format profile : Streaming Video@L1
Format settings, BVOP : Yes
Format settings, QPel : No
Format settings, GMC : No warppoints
Format settings, Matrix : Custom
Codec ID : XVID
Codec ID/Hint : XviD
Duration : 1h 15mn
Bit rate : 1 491 Kbps
Width : 720 pixels
Height : 416 pixels
Display aspect ratio : 16/9
Frame rate : 25.000 fps
Resolution : 24 bits
Colorimetry : 4:2:0
Scan type : Progressive
Bits/(Pixel*Frame) : 0.199
Stream size : 806 MiB (88%)
Writing library : XviD 50

Audio
Format : AC-3
Format/Info : Audio Coding 3
Codec ID : 2000
Duration : 1h 15mn
Bit rate mode : Constant
Bit rate : 192 Kbps
Channel(s) : 2 channels
Channel positions : L R
Sampling rate : 48.0 KHz
Stream size : 104 MiB (11%)
Alignment : Aligned on interleaves
Interleave, duration : 96 ms (2.40 video frames)
Interleave, preload duration : 96 ms





:str: En streaming:


    (Sin subtítulos)


[ Add all 2 links to your ed2k client ]

Nota Jue Ago 11, 2016 5:54 pm
Pinta muy bien, aprovecho para emulizar y subir los subs que del mega no te puedes fiar.

Gracias, compa.

Ya que hoy un proyecto que sale en el docu es noticia igual es adecuado reflotarlo...


Volver a Cine documental

Antes de empezar, un par de cosas:

Puedes usar las redes sociales para enterarte de las novedades o ayudarnos a difundir lo que encuentres.
Si ahora no te apetece, puedes hacerlo cuando quieras con los botones de arriba.

Facebook Twitter
Telegram YouTube

Sí, usamos cookies. Puedes ver para qué las usamos y cómo quitarlas o simplemente puedes aceptarlo.