RebeldeMule

Requiem for the American Dream (VV.AA., 2015)

Historia, ciencia, sociedad, política y esos conceptos.
Requiem for the American Dream
Peter D. Hutchison, Kelly Nyks, Jared P. Scott (EE.UU. de América, 2015) [73 min]

Portada
IMDb
(Filmaffinity)


Sinopsis:

    «Requiem for the American Dream» es la conversación definitiva con Noam Chomsky, ampliamente considerado como el intelectual vivo más importante, en la característica que define nuestra época (la concentración deliberada de la riqueza y el poder en manos de unos pocos elegidos). A través de entrevistas filmadas durante cuatro años, Chomsky deshace los principios que nos han traído hasta la encrucijada de la desigualdad sin precedentes históricos, trazando medio siglo de políticas destinadas a favorecer a los más ricos a expensas de la mayoría y, al mismo tiempo, mirando hacia atrás sobre su propia vida de activismo y participación política. Profundamente personal a la vez que hace pensar, Chomsky ofrece una penetrante visión de lo que bien puede ser el duradero legado de nuestro tiempo (la muerte de la clase media y el canto del cisne del funcionamiento de la democracia). Un poderoso aviso de que el poder recae en última instancia en manos de los gobernados, el documental es de visionado obligatorio para todos los que mantengan la esperanza en una participación compartida en el futuro. - Escrito por Jared P. Scott (original)

Ficha técnica

    Guión: Peter D. Hutchison, Kelly Nyks, Jared P. Scott.
    Música: Malcolm Francis.
    Fotografía: Rob Featherstone, Michael McSweeney.
    Productora: PF Pictures.

Intervenciones:

  • Noam Chomsky.

Idioma original: Inglés.





WEB-DL VO+S - MP4 (XviD+AAC) [572.53 Mb]





WEB-DL VO+S - MKV (X264/AVC+AC3 5.1) [2.22 Gb]
detalles técnicos u otros: mostrar contenido
General
Unique ID: 214326457650871564622770858515889214696 (0xA13DC63653107C56952FD897B02154E8)
Format: Matroska
File size: 2.22 GiB
Duration: 1h 12mn

Video

Format: AVC
Codec ID: V_MPEG4/ISO/AVC
Bit rate mode: Variable
Bit rate: 3900 Kbps
Maximum bit rate: 768 Kbps
Width: 1 280 pixels
Height: 714 pixels
Display aspect ratio: 16:9
Frame rate mode: Constant
Frame rate: 23.976 fps
Stream size: 1.98 GiB (89%)

Audio

Format: AC-3
Bit rate mode: Constant
Bit rate: 384 Kbps
Channel(s): 6 channels
Channel positions: Front: L C R, Side: L R, LFE
Sampling rate: 48.0 KHz
Frame rate: 31.250 fps (1536 spf)
Compression mode: Lossy
Stream size: 200 MiB (9%)
Language: English

Text

Format: UTF-8
Codec ID: S_TEXT/UTF8
Codec ID/Info: UTF-8 Plain Text
Language: English





BDRip VE+S - MKV (X264/AVC+AC3 2.0)
detalles técnicos u otros: mostrar contenido
General
Complete name : D:\Incoming\Requiem.Por.El.Sueno.Americano.(Spanish).HD.720p.x264-AC3.by.Geot.mkv
Format : Matroska
File size : 647 MiB
Duration : 1h 12mn
Overall bit rate : 1 246 Kbps
Encoded date : UTC 2016-10-01 18:11:16
Writing application : mkvmerge v6.4.1 ('Omega Point') built on Sep 16 2013 22:05:10
Writing library : libebml v1.3.0 + libmatroska v1.4.1

Video
Format : AVC
Format/Info : Advanced Video Codec
Format profile : Main@L3.1
Format settings, CABAC : Yes
Format settings, ReFrames : 3 frames
Muxing mode : Container profile=Unknown@3.1
Codec ID : V_MPEG4/ISO/AVC
Duration : 1h 12mn
Bit rate : 1 028 Kbps
Width : 1 280 pixels
Height : 714 pixels
Display aspect ratio : 16/9
Frame rate mode : Variable
Frame rate : 23.974 fps
Resolution : 24 bits
Colorimetry : 4:2:0
Scan type : Progressive
Bits/(Pixel*Frame) : 0.047

Audio
Format : AC-3
Format/Info : Audio Coding 3
Codec ID : A_AC3
Duration : 1h 12mn
Bit rate mode : Constant
Bit rate : 160 Kbps
Channel(s) : 2 channels
Channel positions : L R
Sampling rate : 48.0 KHz
Language : Spanish





Relacionado:

    Portada
    Monografías. (EEUU de América, 1928)
    Como lingüista se le reconoce internacionalmente por crear la gramática transformacional y generativa y como un peso pesado entre los intelectuales. Aunque, por supuesto, es su faceta de militante político la que nos interesa en este foro...


[ Add all 2 links to your ed2k client ]

Gracias.
[Acrostico]
ex : cineautor.info[cerrado]


Rip doblado al castellano, recién sacado del horno :P añadido al principal.

Revisando el nuevo Spanish Rip de Geot compruebo que algunas partes no están dobladas, he apañado unos forzados rápidos que sin ser perfectos valen para no perderse nada. No hay que perderse nada.


Volver a Cine documental

Antes de empezar, un par de cosas:

Puedes usar las redes sociales para enterarte de las novedades o ayudarnos a difundir lo que encuentres.
Si ahora no te apetece, puedes hacerlo cuando quieras con los botones de arriba.

Facebook Twitter
Telegram YouTube

Sí, usamos cookies. Puedes ver para qué las usamos y cómo quitarlas o simplemente puedes aceptarlo.