RebeldeMule

Andes Libertarios: El anarquismo en Perú (Renzo Forero,2014)

Historia, ciencia, sociedad, política y esos conceptos.
Andes Libertarios: el anarquismo en el Perú
Renzo Forero (Perú, 2014) [59 min]

Portada
(Filmaffinity)


Sinopsis:

    En 1905, en la primera celebración popular del Primero de Mayo en el Perú, Manuel González Prada da su discurso "El intelectual y el obrero", acompañado por el discurso del obrero anarquista Manuel Caracciolo Lévano "Los gremios obreros en el Perú y lo que debieran ser". Esta celebración representa simbólicamente la unión entre intelectuales radicales convertidos al anarquismo y el naciente movimiento obrero que también adhiere a esta ideología y la utiliza como arma de reivindicación social. Los anarquistas serán los primeros en utilizar la acción directa, el sindicalismo revolucionario y la solidaridad de clase para obtener sus reclamos, entre los cuales destaca las 8 horas laborales para la totalidad de trabajadores del Perú en 1919. Hasta finales de los años 1920, el anarquismo será la principal ideología revolucionaria en el Perú, adentrándose incluso en el campo donde estará al origen de varias insurrecciones.

    Este documental, que recorre la historia del anarquismo en el Perú desde sus inicios hasta el presente, es un homenaje para todos aquellos libertarios olvidados adrede por la historia oficial y para quienes hoy en día, bajo la creciente popularidad e importancia del anarquismo a nivel mundial, levantan la bandera rojo y negra por la igualdad, la justicia y la libertad.

Ficha técnica

    Guión: Renzo Forero.
    Música: Varios.
    Productora: Moutonnoir Producciones.

Intervienen:

    Franz García, Oscar Llanos, Jesús Cossio, Francisco Guzmán, Cesár Lévano, Augusto Lostaunau, Roberto Praga, Diego Rojas, Renato Porras, Anne Melendez.





WEB-DL VO - AVI (XviD+MP3) [1.37 Gb]
detalles técnicos u otros: mostrar contenido
Complete name : Andes.Libertarios.El.Anarquismo.en.el.Peru.2014.WebRip.Xvid.MP3.by.iMago_simpson.(Emule.via.clan-sudamerica.net).avi
Format : AVI
Format/Info : Audio Video Interleave
Format profile : OpenDML
File size : 1.37 GiB
Duration : 59mn 27s
Overall bit rate : 3 304 Kbps
Writing application : MEncoder SVN-r33883(20110719-gcc4.5.2)
Writing library : MPlayer

Video
ID : 0
Format : MPEG-4 Visual
Format profile : Advanced Simple@L5
Format settings, BVOP : 3
Format settings, QPel : No
Format settings, GMC : No warppoints
Format settings, Matrix : Default (H.263)
Codec ID : XVID
Codec ID/Hint : XviD
Duration : 59mn 27s
Bit rate : 3 161 Kbps
Width : 1 920 pixels
Height : 1 080 pixels
Display aspect ratio : 16:9
Frame rate : 30.000 fps
Color space : YUV
Chroma subsampling : 4:2:0
Bit depth : 8 bits
Scan type : Progressive
Compression mode : Lossy
Bits/(Pixel*Frame) : 0.051
Stream size : 1.31 GiB (96%)
Writing library : XviD 1.2.1 (UTC 2008-12-04)

Audio
ID : 1
Format : MPEG Audio
Format version : Version 1
Format profile : Layer 3
Mode : Joint stereo
Mode extension : MS Stereo
Codec ID : 55
Codec ID/Hint : MP3
Duration : 59mn 27s
Bit rate mode : Constant
Bit rate : 128 Kbps
Channel(s) : 2 channels
Sampling rate : 44.1 KHz
Compression mode : Lossy
Delay relative to video : 33ms
Stream size : 54.4 MiB (4%)
Alignment : Aligned on interleaves
Interleave, duration : 26 ms (0.78 video frame)
Interleave, preload duratio : 522 ms
Writing library : LAME3.98.4
detalles técnicos u otros: mostrar contenido
Imagen





:str: Streaming


Volver a Cine documental

Antes de empezar, un par de cosas:

Puedes usar las redes sociales para enterarte de las novedades o ayudarnos a difundir lo que encuentres.
Si ahora no te apetece, puedes hacerlo cuando quieras con los botones de arriba.

Facebook Twitter
Telegram YouTube

Sí, usamos cookies. Puedes ver para qué las usamos y cómo quitarlas o simplemente puedes aceptarlo.