RebeldeMule

American Radical (D. Ridgen, N. Rossier, 2009)

Historia, ciencia, sociedad, política y esos conceptos.
American Radical: The Trials of Norman Finkelstein
David Ridgen, Nicolas Rossier (Canadá, USA, Israel, Líbano, Territorios Palestinos; 2009) [84 min]

Portada
IMDb
(Wikipedia | Filmaffinity | Página oficial)


Sinopsis:

    ¿Quién es Norman Finkelstein? ¿Es un profeta o un paria? ¿Un politólogo o un simple provocador? Esas preguntas espinosas son las que motivan esta encendida mirada al controvertido académico judío que con su libro de 2000 La industria del holocausto se convirtió en el pararrayos de todo el debate alrededor de la identidad semítica moderna y el conflicto entre Israel y Palestina. Con acceso total a su objeto, los directores David Ridgen y Nicolás Rossier cuentan la infancia de Finkelstein como hijo de sobrevivientes del Holocausto, sus muy públicas batallas con Alan Dershowitz (y con el comité de pertenencia de la Universidad DePaul), y la ocasión en que Israel le prohibió la entrada al país en 2008. El resultado es un retrato debidamente balanceado de un pensador intransigente que, aunque a veces sea su propio peor enemigo, no puede ser desestimado tan fácilmente. (extraído de BAFICI.gov.ar)

Ficha técnica

    Guión: David Ridgen, Nicolas Rossier.
    Música: Judd Greenstein.
    Fotografía: David Ridgen, Nicolas Rossier.
    Productora: Baraka Productions, Ridgen Film.

Intervienen:

    Musa Abu-Hashhash, Nidal Barham, Noam Chomsky, Alan M. Dershowitz, Norman Finkelstein, Richard Finkelstein, Raul Hilberg, John Mearsheimer, David Olesker, Len Rudner, Avi Shlaim, Maxine Tsvaigrach.

Idioma original: Inglés.





TVRip VE - AVI (XviD+MP3)
detalles técnicos u otros: mostrar contenido
General
Complete name : American Radical (1 y 2).2009 (Documental C.Historia).(Norman Finkelstein).[SATRip][xvid-mp3].88m.by.Dok.avi
Format : AVI
Format/Info : Audio Video Interleave
File size : 950 MiB
Duration : 1h 28mn
Overall bit rate : 1 496 Kbps
Writing application : VirtualDubMod 1.5.4.1 (build 2178/release)
Writing library : VirtualDubMod build 2178/release

Video
Format : MPEG-4 Visual
Format profile : Streaming Video@L1
Format settings, BVOP : Yes
Format settings, QPel : No
Format settings, GMC : No warppoints
Format settings, Matrix : Custom
Codec ID : XVID
Codec ID/Hint : XviD
Duration : 1h 28mn
Bit rate : 1 361 Kbps
Width : 704 pixels
Height : 400 pixels
Display aspect ratio : 16/9
Frame rate : 25.000 fps
Resolution : 24 bits
Colorimetry : 4:2:0
Scan type : Progressive
Bits/(Pixel*Frame) : 0.193
Stream size : 864 MiB (91%)
Writing library : XviD 50

Audio
Format : MPEG Audio
Format version : Version 1
Format profile : Layer 3
Codec ID : 55
Codec ID/Hint : MP3
Duration : 1h 28mn
Bit rate mode : Constant
Bit rate : 128 Kbps
Channel(s) : 2 channels
Sampling rate : 48.0 KHz
Resolution : 16 bits
Stream size : 81.3 MiB (9%)
Alignment : Aligned on interleaves
Interleave, duration : 80 ms (2.00 video frames)
Interleave, preload duration : 504 ms

Created with: DP MediaInfo version 1.05 (c) by Dirk Paehl
MediaInfoLib - v0.7.8





Incluido en la monografía "Disidentes en EEUU"

Aquí podéis ver un vídeo que se ha hecho famoso ya de Finkelstein respondiendo a una oyente en una charla.

https://www.youtube.com/watch?v=gE8GESi35Yw

Menudo aporte... ¡a por él!


Volver a Cine documental

Antes de empezar, un par de cosas:

Puedes usar las redes sociales para enterarte de las novedades o ayudarnos a difundir lo que encuentres.
Si ahora no te apetece, puedes hacerlo cuando quieras con los botones de arriba.

Facebook Twitter
Telegram YouTube

Sí, usamos cookies. Puedes ver para qué las usamos y cómo quitarlas o simplemente puedes aceptarlo.