RebeldeMule

La muerte de nadie (Joan Dolç, 2004)

Historia, ciencia, sociedad, política y esos conceptos.
La muerte de nadie
La mort de ningú
Joan Dolç (España, 2004) [90 min]

Portada
IMDb
(filmaffinity)


Sinopsis:

    El garrote vil funcionó por última vez en España el 2 de marzo de 1974. Poco antes de las diez de la mañana el verdugo acabó con la vida del anarquista catalán Salvador Puig Antich en la prisión de Barcelona. Simultáneamente, en Tarragona, corrió la misma suerte un misterioso vagabundo que había sido condenado a la pena capital por el asesinato de un guardia civil en diciembre de 1972. Lo poco que se sabía de él era lo que él mismo había contado: se llamaba Heinz Ches, no tenía familia y había nacido en Polonia, en 1939. Durante casi treinta años el caso Ches ha sido uno de los grandes misterios de la historia judicial y política española. Hasta ahora. "La muerte de nadie" ("El enigma Ches") es un documental de investigación sobre la vida e identidad reales de Heinz Ches. Tras varios años de trabajo, ha llegado el momento de presentar unas conclusiones que no han podido ser más sorprendentes. Heinz Ches no era polaco, ni había nacido en 1939. Y sí tenía familia. Hemos localizado a su madre, a sus hermanos, a su compañera sentimental y a sus tres hijos. Todos ellos han conocido ahora, tres décadas después, las circunstancias que condujeron a Heinz Ches al garrote vil. Pero las incógnitas del caso no se agotan en la identidad de Ches. ¿Qué decisiones políticas unieron su caso al de Salvador Puig Antich? ¿Sabían quienes le juzgaron que Ches era alemán y no polaco? Y si era así, ¿por qué asumieron e hicieron suya la mentira? A medida que las piezas encajen en el rompecabezas, se irán desvelando las claves que pueden llegar a utilizar las estructuras del Poder, en este caso las de un Estado autocrático, para maquillar y deformar la realidad en función de sus intereses, y las circunstancias que pueden llevar a un hombre, que esencialmente buscaba la libertad, a convertirse en un homicida y a morir a manos de un verdugo.

Ficha técnica:

    Guión: Joan Dolç.
    Fotografía: Miguel Ángel Beltrán.
    Productora: Malvarrosa Media.




DVDRip VOS - MP4 (X264/AVC+AAC)
detalles técnicos u otros: mostrar contenido
General
Complete name : D:\La muerte de nadie (Joan Dolç, 2004).mp4
Format : MPEG-4
Format profile : Base Media / Version 2
Codec ID : mp42
File size : 841 MiB
Duration : 1h 32mn
Overall bit rate : 1 265 Kbps
Encoded date : UTC 2013-09-03 09:08:24
Tagged date : UTC 2013-09-03 09:08:47

Video
Format : AVC
Format/Info : Advanced Video Codec
Format profile : Main@L3.1
Format settings, CABAC : No
Format settings, ReFrames : 2 frames
Codec ID : avc1
Codec ID/Info : Advanced Video Coding
Duration : 1h 32mn
Bit rate mode : Variable
Bit rate : 1 004 Kbps
Width : 1 024 pixels
Height : 576 pixels
Display aspect ratio : 16/9
Frame rate mode : Constant
Frame rate : 25.000 fps
Resolution : 24 bits
Colorimetry : 4:2:0
Scan type : Progressive
Bits/(Pixel*Frame) : 0.068
Stream size : 667 MiB (79%)
Title : Gestor de contenido de v?deo Apple
Language : English
Encoded date : UTC 2013-09-03 09:08:19
Tagged date : UTC 2013-09-03 09:08:47

Audio
Format : AAC
Format/Info : Advanced Audio Codec
Format version : Version 4
Format profile : LC
Format settings, SBR : No
Codec ID : 40
Duration : 1h 32mn
Bit rate mode : Constant
Bit rate : 256 Kbps
Channel(s) : 2 channels
Channel positions : L R
Sampling rate : 48.0 KHz
Resolution : 16 bits
Stream size : 170 MiB (20%)
Title : Gestor de contenido de sonido Apple
Language : English
Encoded date : UTC 2013-09-03 09:08:19
Tagged date : UTC 2013-09-03 09:08:47


Volver a Cine documental

cron
Antes de empezar, un par de cosas:

Puedes usar las redes sociales para enterarte de las novedades o ayudarnos a difundir lo que encuentres.
Si ahora no te apetece, puedes hacerlo cuando quieras con los botones de arriba.

Facebook Twitter
Telegram YouTube

Sí, usamos cookies. Puedes ver para qué las usamos y cómo quitarlas o simplemente puedes aceptarlo.