RebeldeMule

Examined Life (Astra Taylor, 2008)

Historia, ciencia, sociedad, política y esos conceptos.
Examined Life
Astra Taylor (Canadá, 2008) [88 min]

Portada
IMDb
(wikipedia | filmaffinity)


Sinopsis:

    Slavoj Žižek saca a la filosofía de las revistas académicas y de las aulas para ponerla de nuevo en las calles. A lo largo del documental, su directora y guinista, Astra Taylor, acompaña a algunos de los pensadores más influyentes de hoy en una serie de excursiones únicas a través de lugares y espacios que tienen una resonancia especial para ellos y para sus ideas.

En Videoteca de humanidades (Doclécticos) se escribió:El título de este documental alude a una sentencia de la Apología de Sócrates: “Una vida sin examen no vale la pena vivirla”. La propuesta de la directora Astra Taylor fue invitar a una serie de conocidos pensadores de la actualidad a que examinaran (e hicieran que el espectador examinara con ellos) algunos aspectos de la vida contemporánea que consideran relevantes. Por ejemplo, cómo actuar éticamente con el Otro sin apelar a un sentido trascendental (Avital Ronell), qué implicaciones éticas tiene no sólo lo que hacemos, sino lo que dejamos de hacer con nuestro dinero (Peter Singer) o qué implicaciones violentas tiene la naturalización que hemos realizado de algunos comportamientos corporales (Judith Butler y Sunaura Taylor). Una de las mayores virtudes de este documental es el diálogo que se establece entre el espacio físico que los invitados recorren y el recorrido de su pensamiento. Así, por ejemplo, mientras rema en un bello lago de un parque de Nueva York, Michael Hardt reflexiona sobre la necesidad de que se piense que otro mundo (diferente al de la globalización actual) sería beneficioso no sólo para los menos favorecidos, sino para los privilegiados, y mientras recorre un basurero, Slavoj Zizek habla sobre la ecología como una ideología conservadora. Además de los pensadores ya aludidos, participan en este documental: Cornel West, Kwame Anthony Appiah y Martha Nussbaum.

Los subtítulos de este documental fueron realizados y publicados originalmente por http://www.notenemossitio.wordpress.com. Con la autorización de sus autores, nosotros realizamos algunos cambios en esos subtítulos.


Ficha técnica

    Guión: Astra Taylor.
    Fotografía: John M. Tran.
    Productora: Sphinx Productions.




¿?Rip VOS - RMVB

    :down: Descarga directa: 4shared [487 Mb]




DVDRip VOS






DVDRip VO+S - AVI (XviD+MP3) [1020 Mb]
detalles técnicos u otros: mostrar contenido
Codec ID/Hint : XviD
Duration : 1h 28mn
Bit rate : 1 482 Kbps
Width : 720 pixels
Height : 384 pixels
Display aspect ratio : 1.875 (~ 1.85)
Frame rate : 23.976 fps
Resolution : 24 bits
Colorimetry : 4:2:0
Scan type : Progressive
Bits/(Pixel*Frame) : 0.224
Stream size : 934 MiB (92%)

Codec ID/Hint : MP3
Duration : 1h 28mn
Bit rate mode : Constant
Bit rate : 128 Kbps
Channel(s) : 2 channels
Sampling rate : 48.0 KHz
Resolution : 16 bits
Stream size : 80.7 MiB (8%)




Volver a Cine documental

Antes de empezar, un par de cosas:

Puedes usar las redes sociales para enterarte de las novedades o ayudarnos a difundir lo que encuentres.
Si ahora no te apetece, puedes hacerlo cuando quieras con los botones de arriba.

Facebook Twitter
Telegram YouTube

Sí, usamos cookies. Puedes ver para qué las usamos y cómo quitarlas o simplemente puedes aceptarlo.