RebeldeMule

Nostalgia de la luz (Patricio Guzmán, 2010)

Historia, ciencia, sociedad, política y esos conceptos.
Nostalgia de la luz
Patricio Guzmán (Francia, 2010) [90 min]

Portada
IMDb
(página web | wikipedia | filmaffinity)


Sinopsis:

    "Nostalgia de la luz" es un film sobre la distancia entre el cielo y la tierra, entre la luz del cosmos y los seres humanos y las misteriosas idas y vueltas que se crean entre ellos. En Chile, a tres mil metros de altura, los astrónomos venidos de todo el mundo se reúnen en el desierto de Atacama para observar las estrellas. Aquí, la transparencia del cielo permite ver hasta los confines del universo. Abajo, la sequedad del suelo preserva los restos humanos intactos para siempre: momias, exploradores, mineros, indígenas y osamentas de los prisioneros políticos de la dictadura. Mientras los astrónomos buscan la vida extra terrestre, un grupo de mujeres remueve las piedras: busca a sus familiares.

Ficha técnica

    Guión: Patricio Guzmán.
    Producción: Renate Sachse.
    Fotografía y cámara: Katell Djian.
    Sonido directo: Freddy González.
    Música original: Miranda & Tobar.
    Astro fotógrafo: Stéphane Guisard.
    Ayudantes dirección: Cristóbal Vicente y Nicolás Lasnibat.
    Montaje: Patricio Guzmán y Emmanuelle Joly.
    Montaje de sonido y mezcla: Jean-Jacques Quinet.
    Productora ejecutiva: Verónica Rosselot.
    Supervisora de montaje: Ewa Lenkiewicz.
    Supervisora de textos: Sonia Moyersoen.
    Distribución: Pyramide.
    Casa de producción: Atacama Productions.
    Soporte de rodaje: HDcam.
    Soporte cine: 35 MM (1.85) dolby digital SRD 5.1.
    Soportes video: Hdcam estéreo y LTRT - Beta digital estéreo y LTRT.

Premios:

    Selección oficial en el Festival de Cannes 2010; mejor documental europeo en el European Film Academy 2010; premio del público en el Festival de Toronto 2010; premio del público en el Festival de Biarritz 2010; premio cine Decouverte en el Festival de Bruselas 2010; premio age d'or en el Festival de Bruselas 2010; mejor documental en el Festival de Abu Dhabi 2010; mención especial del jurado en el Festival de Sheffield 2010; mención especial del jurado en el Festival de Ronda 2010; inauguración en el Festival de Marsella 2010; inauguración en el Festival de Leipzig 2010.




¿?Rip VO - AVI





¿?Rip VO - MKV





¿?Rip VOS - MP4 (cortesía de la compañera Alba)
detalles técnicos u otros: mostrar contenido
General
Complete name : La nostalgie de la lumière.mp4
Format : MPEG-4
Format profile : Base Media / Version 2
Codec ID : mp42 (isom/iso2/avc1/mp41)
File size : 1.95 GiB
Duration : 1 h 30 min
Overall bit rate mode : Variable
Overall bit rate : 3 094 kb/s
Movie name : Nostalgia de la luz 2010 1080p Blu-ray Remux AVC DTS-HD MA 5.1 - KRaLiMaRKo
Encoded date : UTC 2018-09-18 15:38:00
Tagged date : UTC 2018-09-18 15:38:00
Writing application : HandBrake 1.1.1 2018061800

Video
ID : 1
Format : AVC
Format/Info : Advanced Video Codec
Format profile : Main@L4
Format settings : CABAC / 4 Ref Frames
Format settings, CABAC : Yes
Format settings, RefFrames : 4 frames
Codec ID : avc1
Codec ID/Info : Advanced Video Coding
Duration : 1 h 30 min
Bit rate : 2 929 kb/s
Width : 1 920 pixels
Height : 1 080 pixels
Display aspect ratio : 16:9
Frame rate mode : Constant
Frame rate : 25.000 FPS
Color space : YUV
Chroma subsampling : 4:2:0
Bit depth : 8 bits
Scan type : Progressive
Bits/(Pixel*Frame) : 0.056
Stream size : 1.85 GiB (95%)
Writing library : x264 core 155 r2901 7d0ff22
Encoding settings : cabac=1 / ref=2 / deblock=1:0:0 / analyse=0x1:0x111 / me=hex / subme=6 / psy=1 / psy_rd=1.00:0.00 / mixed_ref=1 / me_range=16 / chroma_me=1 / trellis=1 / 8x8dct=0 / cqm=0 / deadzone=21,11 / fast_pskip=1 / chroma_qp_offset=-2 / threads=3 / lookahead_threads=1 / sliced_threads=0 / nr=0 / decimate=1 / interlaced=0 / bluray_compat=0 / constrained_intra=0 / bframes=3 / b_pyramid=2 / b_adapt=1 / b_bias=0 / direct=1 / weightb=1 / open_gop=0 / weightp=1 / keyint=250 / keyint_min=25 / scenecut=40 / intra_refresh=0 / rc_lookahead=30 / rc=crf / mbtree=1 / crf=26.0 / qcomp=0.60 / qpmin=0 / qpmax=69 / qpstep=4 / vbv_maxrate=20000 / vbv_bufsize=25000 / crf_max=0.0 / nal_hrd=none / filler=0 / ip_ratio=1.40 / aq=1:1.00
Encoded date : UTC 2018-09-18 15:38:00
Tagged date : UTC 2018-09-18 15:38:00
Color range : Limited
Color primaries : BT.709
Transfer characteristics : BT.709
Matrix coefficients : BT.709
Menus : 3
Codec configuration box : avcC

Audio
ID : 2
Format : AAC LC
Format/Info : Advanced Audio Codec Low Complexity
Codec ID : mp4a-40-2
Duration : 1 h 29 min
Bit rate mode : Variable
Bit rate : 160 kb/s
Channel(s) : 2 channels
Channel layout : L R
Sampling rate : 48.0 kHz
Frame rate : 46.875 FPS (1024 SPF)
Compression mode : Lossy
Stream size : 103 MiB (5%)
Title : Stereo / Stereo
Language : Spanish
Default : Yes
Alternate group : 1
Encoded date : UTC 2018-09-18 15:38:00
Tagged date : UTC 2018-09-18 15:38:00
Menus : 3

Menu
ID : 3
Codec ID : text
Duration : 1 h 30 min
Language : English
Encoded date : UTC 2018-09-18 15:38:00
Tagged date : UTC 2018-09-18 15:38:00
Menu For : 1,2
00:00:00.000 : The German Telescope
00:05:52.280 : A Revolutionary Tide
00:12:25.800 : Roots Beyond the Light
00:18:07.880 : A Lapse in Time
00:24:04.680 : At a Gateway to the Past
00:30:15.800 : Another Night's Work
00:36:43.760 : Measurements
00:42:48.720 : ALMA
00:48:14.560 : Searching
00:53:42.840 : Identifying the Pieces
00:58:45.080 : Taught Not to Believe
01:06:06.680 : A Moral Obligation
01:12:09.280 : Preserved Like Treasure
01:17:06.200 : Another Dimension
01:23:57.840 : The Force of Memory
Bit rate mode : VBR

    :down: Descarga directa: 1fichier [1.95 Gb]

    :sub: Subtítulos: incluidos en francés


[ Add all 2 links to your ed2k client ]

Nota Dom Sep 23, 2018 2:21 pm
[Editado por el comité de RBM para incluir el enlace en el primer mensaje. Muchas gracias, compañera Alba.]


Volver a Cine documental

Antes de empezar, un par de cosas:

Puedes usar las redes sociales para enterarte de las novedades o ayudarnos a difundir lo que encuentres.
Si ahora no te apetece, puedes hacerlo cuando quieras con los botones de arriba.

Facebook Twitter
Telegram YouTube

Sí, usamos cookies. Puedes ver para qué las usamos y cómo quitarlas o simplemente puedes aceptarlo.