RebeldeMule

Heureux anniversaire (Pierre Étaix & J.C. Carrière, 1962)

Que duren menos de 20 minutos.
Feliz aniversario
Heureux Anniversaire
Pierre Étaix (Francia, 1962) [B/N, 15 min]

Portada
IMDb
(Wikipedia | Filmaffinity)


Sinopsis: Una muchacha pone la mesa para la celebración de su aniversario de bodas. Su marido está atorado en el tráfico parisino. Los pocos mandados que le falta hacer sólo consiguen demorarlo más y más.

Une jeune femme prépare la table pour fêter son anniversaire de mariage. Le mari se trouve coincé dans les encombrements parisiens. Les quelques arrêts pour les derniers achats ne font que le retarder davantage. (Allociné)

Secrets de tournage:
- Histoire d'une vie nouvelle. Pendant plus de vingt ans, et à la suite d'imbroglios juridiques peu compréhensibles du grand public, les différents auteurs (il faut citer Jean-Claude Carrière, ami et collaborateur de toujours du cinéaste) se sont vus interdire l'exploitation de leurs films au cinéma. S'il a été malgré lui le héros d'une proscription d'une rare ampleur pour un cinéaste en France, la ténacité de son combat en général et une intervention salutaire du Festival de Cannes en 2007 en particulier ( son film-référence, Yoyo, avait alors été projeté, "illégalement", dans le cadre de Cannes Classics et permis de rouvrir un débat quelque peu oublié) ont finalement permis de réparer un erreur de deux décennies. En 2010, le Festival de Cannes est alors l'occasion d'offrir une nouvelle médiatisation sur le cinéaste, et lance une rétrospective dans laquelle la version remastérisée du Grand amour sert de figure de proue au lancement de la nouvelle vie qui attend l'intégralité des films de Pierre Etaix, restaurés, qui retrouve le chemin des écrans à partir du 7 juillet.

IMDb. A woman is preparing a romantic dinner for two for her and her husband to celebrate their wedding anniversary. Her husband is out running a series of errands, most of his stops to pick up anniversary gifts for his wife. But the anti-anniversary Gods seem to be working against him as Paris traffic and other problems at each stop seem to be holding him up from getting in and out and to home on time for dinner. Meanwhile, his wife has no idea what has happened to her husband. Will it still be a happy anniversary by the time he makes it home?


Ficha técnica
Guión: Jean-Claude Carrière , Pierre Étaix.
Música: Claude Stieremans.
Fotografía: Pierre Levent.
Producción: Jean-Claude Carrière, Pierre Etaix, Paul Claudon.
Productora: C.A.P.A.C. / Atlantic Pictures.

Reparto: Georges Loriot, Nono Zammit, Lucien Frégis, Ican Paillaud, Robert Blome, Laurence Lignières (La femme), Pierre Étaix (Le mari), Jean-Claude Carrière (Le conducteur de la camionnette).

Premios:
1962: Oscar: Mejor cortometraje
1963: Premios BAFTA: Mejor cortometraje

Portada


Pierre Étaix:

- "Pierre Étaix: cómico y cineasta", por Rafael Arias Carrión. Página Abierta, nº 216 (septiembre-octubre de 2011). Pensamiento Crítico.
- "Pierre Étaix: el día que el clown sonrió", por Rafael Arias Carrión. Cine para leer.

- "Pierre Étaix, el auténtico ‘Artist’", por H.P.BORDON. Que mi alegría perdure.
(Reflexión sobre la obra de Étaix, a propósito del film de Michel Hazanavicius)
- "Pierre Etaix en El Havre (2011). Recuerdos de un gran cómico", por Salvador Sáinz. Diario de Cine.
(Homenaje a Étaix, a raíz de su aparición en el film de Aki Kaurismäki)




BDRip VO+S - MKV (X264/AVC+AC3 2.0)
detalles técnicos u otros: mostrar contenido
Imagen
** Pierre Étaix 1962-1971 - Criterion Collection (2013) /
5 Movies + 3 Shorts / 458 min / Aspect ratio: 1.33:1 (shorts), 1.66:1 (features) **
DVDBeaver / BluRay.com

versión restaurada Criterion BluRay HD 720p VO+SE/I 649 Mb.


Datos técnicos:
** HD 720p VO+SI(VobSub)/SPt(srt) / AC3 1.0 / 960x720 (4:3 / 1.333) / 00:13:33 (14 m.) **
Código: Seleccionar todo
General
Complete name                            : Heureux.Anniversaire.1962.720p.BluRay.AVC-mfcorrea.mkv
Format                                   : Matroska
Format version                           : Version 4 / Version 2
File size                                : 650 MiB
Duration                                 : 13mn 33s
Overall bit rate                         : 6 696 Kbps
Encoded date                             : UTC 2014-05-24 19:07:34
Writing application                      : mkvmerge v6.9.1 ('Blue Panther') 32bit built on Apr 18 2014 18:15:44
Writing library                          : libebml v1.3.0 + libmatroska v1.4.1

Video
ID                                       : 1
Format                                   : AVC
Format/Info                              : Advanced Video Codec
Format profile                           : High@L4.1
Format settings, CABAC                   : Yes
Format settings, ReFrames                : 6 frames
Codec ID                                 : V_MPEG4/ISO/AVC
Duration                                 : 13mn 33s
Bit rate                                 : 6 500 Kbps
Width                                    : 960 pixels
Height                                   : 720 pixels
Display aspect ratio                     : 4:3
Frame rate mode                          : Constant
Frame rate                               : 23.976 fps
Color space                              : YUV
Chroma subsampling                       : 4:2:0
Bit depth                                : 8 bits
Scan type                                : Progressive
Bits/(Pixel*Frame)                       : 0.392
Stream size                              : 618 MiB (95%)
Writing library                          : x264 core 130 r2273 b3065e6
Encoding settings                        : cabac=1 / ref=6 / deblock=1:-3:-3 / analyse=0x3:0x133 / me=umh / subme=9 / psy=1 / psy_rd=1.00:0.15 / mixed_ref=1 / me_range=24 / chroma_me=1 / trellis=2 / 8x8dct=1 / cqm=0 / deadzone=21,11 / fast_pskip=1 / chroma_qp_offset=-3 / threads=18 / lookahead_threads=2 / sliced_threads=0 / nr=0 / decimate=1 / interlaced=0 / bluray_compat=0 / constrained_intra=0 / bframes=5 / b_pyramid=2 / b_adapt=2 / b_bias=0 / direct=3 / weightb=1 / open_gop=0 / weightp=2 / keyint=240 / keyint_min=24 / scenecut=40 / intra_refresh=0 / rc_lookahead=60 / rc=2pass / mbtree=1 / bitrate=6500 / ratetol=1.0 / qcomp=0.60 / qpmin=0 / qpmax=69 / qpstep=4 / cplxblur=20.0 / qblur=0.5 / vbv_maxrate=62500 / vbv_bufsize=78125 / nal_hrd=none / ip_ratio=1.40 / aq=1:1.00
Language                                 : English
Default                                  : Yes
Forced                                   : No
Color primaries                          : BT.709
Transfer characteristics                 : BT.709
Matrix coefficients                      : BT.709

Audio
ID                                       : 2
Format                                   : AC-3
Format/Info                              : Audio Coding 3
Mode extension                           : CM (complete main)
Format settings, Endianness              : Big
Codec ID                                 : A_AC3
Duration                                 : 13mn 33s
Bit rate mode                            : Constant
Bit rate                                 : 192 Kbps
Channel(s)                               : 1 channel
Channel positions                        : Front: C
Sampling rate                            : 48.0 KHz
Bit depth                                : 16 bits
Compression mode                         : Lossy
Stream size                              : 18.6 MiB (3%)
Language                                 : French
Default                                  : Yes
Forced                                   : No

Text
ID                                       : 3
Format                                   : VobSub
Muxing mode                              : zlib
Codec ID                                 : S_VOBSUB
Codec ID/Info                            : The same subtitle format used on DVDs
Language                                 : English
Default                                  : No
Forced                                   : No


Capturas:
Imagen Imagen
Imagen Imagen Imagen Imagen

Imagen

Imagen Imagen Imagen Imagen
Imagen Imagen





BDRip VO - MKV [Versión restaurada Criterion]





Enlaces relacionados:


Salud.

[ Add all 2 links to your ed2k client ]

Volver a Cortos de ficción

Antes de empezar, un par de cosas:

Puedes usar las redes sociales para enterarte de las novedades o ayudarnos a difundir lo que encuentres.
Si ahora no te apetece, puedes hacerlo cuando quieras con los botones de arriba.

Facebook Twitter
Telegram YouTube

Sí, usamos cookies. Puedes ver para qué las usamos y cómo quitarlas o simplemente puedes aceptarlo.