RebeldeMule

Rupture (Pierre Étaix, Jean-Claude Carrière, 1961)

Que duren menos de 20 minutos.
Rupture
Pierre Étaix, Jean-Claude Carrière (Francia, 1961) [11 min]

Portada
IMDb
(Filmaffinity)


Sinopsis: Un hombre recoge el correo, donde encuentra una carta perfumada. Es de su novia, pero no son buenas noticias...
Étaix, asistente y escritor de gags para Jacques Tati en 'Mon Oncle' debuta con este corto donde puede verse la influencia de Tati. (FILMAFFINITY)

Un homme reçoit une lettre de rupture de sa bien-aimée qui lui renvoie sa photo déchiré. L'amoureux blessé décide de répondre à cette missive. Stylo à encre, porte-plume, table de travail, timbres-poste, papier et encrier deviennent diaboliquement récalcitrants et comble de malheur, le jeune homme se retrouve éjecté par la fenêtre de son fauteuil à bascule. (Allociné)

IMDb: When picking up his mail, a man is excited to see a letter from his sweetheart. His excitement turns to sorrow when he gets home to his flat and sees that it is a Dear John letter. But that sorrow turns to anger as he figures that he will send her a Dear Jane letter in return. However, writing that letter isn't as easy as he hopes as he encounters one problem after another, from a broken fountain pen, to a temperamental ink well, to stuck stamps, to a broken desk.


Portada


A French comedy master whose films went unseen for decades as a result of legal tangles, director-actor Pierre Etaix is a treasure the cinematic world has rediscovered and embraced with relish. His work can be placed on the spectrum of classic physical comedy with that of Jacques Tati and Jerry Lewis, but it also stands alone in its good- natured delicacy. These films, influenced by Etaix’s experiences as a circus acrobat and clown and by the silent film comedies he adored, are elegantly deadpan, but as an on-screen presence, Etaix radiates warmth.
This collection includes all of his films, five features, The Suitor,Yoyo, As Long as You’ve Got Your Health, Le grand amour, and Land of Milk and Honey—most of them collaborations with the great screenwriter Jean-Claude Carrière—and three shorts, Rupture, the Oscar-winning Happy Anniversary, and Feeling Good. Not one of these is anything less than a bracing and witty delight. (Criterion)

Largometrajes:
- Le soupirant (The Suitor, 1962).
- Yoyo (Yo Yo, 1965).
- Tant qu'on a la santé (As Long as You've Got Your Health, 1966).
- Le grand amour (1969).
- Pays de cocagne (Land of Milk and Honey, 1971). Documental.

Cortometrajes:
- Rupture (1961). (12:45)
- Heureux anniversaire (Happy Anniversary, 1962). (13:55)
- En pleine forme (Feeling Good, 2010). (14:56)

Extras:
- Pierre Etaix, un destin anime (2010), a portrait of the life and work of Etaix (1:00:45)


Portada


Pierre Étaix:

- "Pierre Étaix: cómico y cineasta", por Rafael Arias Carrión. Página Abierta, nº 216 (septiembre-octubre de 2011). Pensamiento Crítico.
- "Pierre Étaix: el día que el clown sonrió", por Rafael Arias Carrión. Cine para leer.

- "Pierre Étaix, el auténtico ‘Artist’", por H.P.BORDON. Que mi alegría perdure.
(Reflexión sobre la obra de Étaix, a propósito del film de Michel Hazanavicius)
- "Pierre Etaix en El Havre (2011). Recuerdos de un gran cómico", por Salvador Sáinz. Diario de Cine.
(Homenaje a Étaix, a raíz de su aparición en el film de Aki Kaurismäki)

Ficha técnica
Guión: Pierre Étaix , Jean-Claude Carrière.
Música: Jean Paillaud.
Fotografía: Pierre Levent.
Producción: Paul Claudon.
Productora: C.A.P.A.C.

Reparto: Anne-Marie Royer, Anny Nelsen, Pierre Étaix.

Premios:
- The film won two prizes in West Germany's film festivals in 1961: The International Film Critics Prize issued by FIPRESCI Jury, at the Mannheim-Heidelberg International Filmfestival; and the First Prize at the International Short Film Festival, Oberhausen IMDb).

Idioma original: Sin diálogos.





BDRip VO - MKV (X264/AVC+AC3 2.0)
detalles técnicos u otros: mostrar contenido
Imagen
** Pierre Étaix 1962-1971 - Criterion Collection (2013) /
5 Movies + 3 Shorts / 458 min / Aspect ratio: 1.33:1 (shorts), 1.66:1 (features) **
DVDBeaver / BluRay.com

versión restaurada Criterion BluRay HD 720p VO 545.08 Mb.


Datos técnicos:
** HD 720p VO / AC3 1.0 / 960x720 (4:3 / 1.333) / 00:12:44 (13 m.) **
** Sin diálogos, no necesita subtítulos **
Código: Seleccionar todo
General
Complete name                            : Rupture.1961.720p.BluRay.AC3.KESH.mkv
Format                                   : Matroska
Format version                           : Version 4 / Version 2
File size                                : 545 MiB
Duration                                 : 12mn 44s
Overall bit rate                         : 5 977 Kbps
Encoded date                             : UTC 2013-07-18 15:52:54
Writing application                      : mkvmerge v6.2.0 ('Promised Land') built on Apr 28 2013 12:22:01
Writing library                          : libebml v1.3.0 + libmatroska v1.4.0

Video
ID                                       : 1
Format                                   : AVC
Format/Info                              : Advanced Video Codec
Format profile                           : High@L4.1
Format settings, CABAC                   : Yes
Format settings, ReFrames                : 12 frames
Codec ID                                 : V_MPEG4/ISO/AVC
Duration                                 : 12mn 44s
Bit rate                                 : 5 666 Kbps
Nominal bit rate                         : 6 000 Kbps
Width                                    : 960 pixels
Height                                   : 720 pixels
Display aspect ratio                     : 4:3
Frame rate mode                          : Constant
Frame rate                               : 23.976 fps
Color space                              : YUV
Chroma subsampling                       : 4:2:0
Bit depth                                : 8 bits
Scan type                                : Progressive
Bits/(Pixel*Frame)                       : 0.342
Stream size                              : 517 MiB (95%)
Title                                    : Rupture.1961.720p.BluRay.AC3.KESH
Writing library                          : x264 core 130 r2273 b3065e6
Encoding settings                        : cabac=1 / ref=12 / deblock=1:0:0 / analyse=0x3:0x133 / me=umh / subme=10 / psy=1 / psy_rd=1.00:0.00 / mixed_ref=1 / me_range=24 / chroma_me=1 / trellis=2 / 8x8dct=1 / cqm=0 / deadzone=21,11 / fast_pskip=1 / chroma_qp_offset=-2 / threads=12 / lookahead_threads=2 / sliced_threads=0 / nr=0 / decimate=1 / interlaced=0 / bluray_compat=0 / constrained_intra=0 / bframes=8 / b_pyramid=2 / b_adapt=2 / b_bias=0 / direct=3 / weightb=1 / open_gop=0 / weightp=2 / keyint=240 / keyint_min=24 / scenecut=40 / intra_refresh=0 / rc_lookahead=60 / rc=abr / mbtree=1 / bitrate=6000 / ratetol=1.0 / qcomp=0.60 / qpmin=0 / qpmax=69 / qpstep=4 / vbv_maxrate=62500 / vbv_bufsize=78125 / nal_hrd=none / ip_ratio=1.40 / aq=1:1.00
Language                                 : French
Default                                  : Yes
Forced                                   : No
Color primaries                          : BT.709
Transfer characteristics                 : BT.709
Matrix coefficients                      : BT.709

Audio
ID                                       : 2
Format                                   : AC-3
Format/Info                              : Audio Coding 3
Mode extension                           : CM (complete main)
Format settings, Endianness              : Big
Codec ID                                 : A_AC3
Duration                                 : 12mn 44s
Bit rate mode                            : Constant
Bit rate                                 : 192 Kbps
Channel(s)                               : 1 channel
Channel positions                        : Front: C
Sampling rate                            : 48.0 KHz
Bit depth                                : 16 bits
Compression mode                         : Lossy
Stream size                              : 17.5 MiB (3%)
Language                                 : French
Default                                  : Yes
Forced                                   : No


Capturas:
Imagen Imagen Imagen Imagen

Imagen

Imagen Imagen Imagen

Imagen





Enlaces relacionados:

Pierre Étaix

Rupture (Pierre Étaix & Jean-Claude Carrière, 1961) HD 720p VO (Cortometraje sin diálogos, no necesita subtítulos)
Heureux anniversaire (Pierre Étaix & J.C. Carrière, 1962) HD 720p / BRRip VO+SE
Le soupirant (Pierre Étaix, 1962) HD 720p VO+SE
Yoyo (Pierre Étaix, 1965) HD 720p VO+SE

--------------------------------------

El Havre (Aki Kaurismäki, 2011) HD 720p / BRRip / DVDRip VO+SE


Salud.

Volver a Cortos de ficción

Antes de empezar, un par de cosas:

Puedes usar las redes sociales para enterarte de las novedades o ayudarnos a difundir lo que encuentres.
Si ahora no te apetece, puedes hacerlo cuando quieras con los botones de arriba.

Facebook Twitter
Telegram YouTube

Sí, usamos cookies. Puedes ver para qué las usamos y cómo quitarlas o simplemente puedes aceptarlo.