RebeldeMule

Investigación sobre un ciudadano... (Elio Petri, 1970)

Drama, comedia, suspense; a veces a caballo entre la ficción y la realidad, pero siempre cine para pensar con sentido crítico lo social.
Investigación sobre un ciudadano libre de toda sospecha
Indagine su un cittadino al di sopra di ogni sospetto
Elio Petri (Italia, 1970) [Color, 112/115 m.].

Portada Portada Portada Portada
IMDb
(wikipedia | filmaffinity)


Sinopsis:

    El jefe del departamento de homicidos de la policía de Roma, cuya obsesión es perseguir a todo subversivo, decide asesinar a su amante y siembra el lugar del crimen de pruebas contra sí mismo con el fin de probar los límites de su propia impunidad.

Trecce, en El Dardo de la Palabra, el 13 de febrero de 2012, escribió:[...] La peli tiene un fondo universal que está claro, porque el realizador hace una referencia directa a Kafka al final, pero no hacía falta que nos aleccionara, la vulnerabilidad del ciudadano normal a manos de las instituciones está clara a lo largo de la cinta. Pero también hay que observar el lado local que quien no conozca un poco la Historia reciente de Italia no sabrá captar. Aparte de que no puedo dejar de pensar en D. Silvio, por ejemplo (y en esto la peli sigue vigente, por desgracia), el film se estrenó en una época bastante convulsa de la Italia reciente, de hecho el rodaje acabó poco antes del atentado de la Piazza Fontana y la productora tuvo sus recelos de estrenar un film en el que se habla de terrorismo.

La peli es valiente en su planteamiento, nos habla de la obsesión del personaje de Volonté para atajar cualquier estallido terrorista, tiene verdadera obsesión con los comunistas y anarquistas; para él, cualquier persona de esta ideología debe ser sometida a vigilancia, les considera un peligro para la sociedad; como él dice, "represión es civilización". Mientras veía la peli, recordaba la famosa Red Gladio, con la turbia colaboración entre ramas de los servicios secretos italianos, con agencias vinculadas a la OTAN y los EE.UU. a través de agentes neofascistas, tratando de menoscabar el poder de convocatoria del PCI y presentando como un peligro público a los anarquistas, cuando en aquella época apenas había unos cientos de activistas anarquistas frente a varios miles de extrema derecha.

Una película que nos deja algo perturbados y con unas cuantas cosas en las que pensar, como las que representa el personaje de Florinda Bolkan cuando induce a su amante a que se salte las normas; ella, que aparentemente toma el papel de sumisa en la relación que mantienen: el esclavo crea al amo, es decir, el pueblo, nosotros, creamos al poderoso y estamos encantados con que nos mande y cuanto más corrupto mejor.

Buen cine político, profundo y muy actual.


Ficha técnica


Reparto:

  • Gian Maria Volonté (L'ispettore).
  • Florinda Bolkan (Augusta Terzi).
  • Gianni Santuccio (Il Questore).
  • Orazio Orlando (Ispettore Biglia).
  • Sergio Tramonti (Antonio Pace).
  • Filippo De Gara (Agente all'interrogatorio).
  • Arturo Dominici (Mangani, capo della omicidi).
  • Vittorio Duse (Canes).
  • Vincenzo Falanga (Pallottella).
  • Aldo Rendine (Nicola Panunzio).
  • Massimo Foschi (Signor Terzi).
  • Aleka Paizi (Cameriera dell'ispettore).
  • Salvo Randone (L'idraulico).
  • Ugo Adinolfi (Uno dei due fermati).
  • Gino Usai (Uno dei due fermati).
  • Giacomo Bellini.
  • Giuseppe Terranova.
  • Pino Patti.
  • Franco Marletta.
  • Roberto Bonanni.
  • Fulvio Grimaldi.
  • Giuseppe Licastro.
  • Guido Buzzelli.

Premios:

    - 1970: Oscar: Mejor película de habla no inglesa
    - 1970: Festival de Cannes: Gran Premio del Jurado, Premio FIPRESCI
    - 1970: Círculo de críticos de Nueva York: Nominada a Mejor Guión
    - 1969: Premios David di Donatello: Mejor película y actor (Gian Maria Volonté)
    - 1971: Nominada al Oscar: Mejor guión original
    - 1970: Globos de oro: Nominada Mejor película extranjera

Género: Thriller, Drama criminal, Comedia negra, Sátira.

Idioma original: Italiano.





DVDRip VOS - IVA (fuente)
detalles técnicos u otros: mostrar contenido
Datos del archivo
Idioma: Italiano con subs. en castellano (aparte)
Calidad: DVDRip
Resolución: 720x392
Formato: AVI
Tamaño: 1,38 GB





DVDRip VOS + audio en castellano - AVI
detalles técnicos u otros: mostrar contenido
Name.........: Indagine Su Un Cittadino Al Di Sopra Di Ogni Sospetto [ITA-AC3-DVD RIP].avi
Filesize.....: 1,420 MB (or 1,454,472 KB or 1,489,379,328 bytes)
Runtime......: 01:50:12 (165,309 fr)
Video Codec..: DivX 5.0
Video Bitrate: 1604 kb/s
Video Qf.....: 0.227 bits/pixel
Video fps....: 25.000
Audio Codec..: ac3 (0x2000) Dolby Laboratories, Inc
Audio Bitrate: 192 kb/s (96/ch, stereo) CBR
Frame Size...: 720x392 (1.84:1) [~11:6]





BDRip VOS - MKV (fuente)
detalles técnicos u otros: mostrar contenido
Datos del archivo
Idioma: Italiano con subs en español (muxed)
Calidad: BDRip
Resolución: 1280x688
Formato: MKV
Tamaño: 4,99 GB





BDRip 720p Dual - MKV (fuente)
detalles técnicos u otros: mostrar contenido
VIDEO: H264 MP4 AVC
AUDIO: AC3 192kb Mono Castellano, AC3 224 Mono Italiano
RESOLUCIÓN: 1280x692
PROPORCIÓN: 1.85:1
FRAMES: 23.976 fps
DURACIÓN: 01:55:14
PESO: 4.36gb
SUBTÍTULOS: Se incluyen en castellano e italiano.
detalles técnicos u otros: mostrar contenido
General
Complete name : D:\MONTAJE Y PELICULAS\TERMINADAS\Investigacion.sobre.un.ciudadano.libre.de.toda.sospecha.1970.(BDRip.HD.720p.AC3.Dual.[Spanish.Italian].Subs.[Castellano.Italiano]).By.SitherKiller.mkv
Format : Matroska
File size : 4.37 GiB
Duration : 1h 55mn
Overall bit rate : 5 426 Kbps
Encoded date : UTC 2013-12-30 15:27:54
Writing application : mkvmerge v5.8.0 ('No Sleep / Pillow') built on Sep 2 2012 15:37:04
Writing library : libebml v1.2.3 + libmatroska v1.3.0

Video
ID : 1
Format : AVC
Format/Info : Advanced Video Codec
Format profile : High@L4.1
Format settings, CABAC : Yes
Format settings, ReFrames : 5 frames
Muxing mode : Container profile=Unknown@4.1
Codec ID : V_MPEG4/ISO/AVC
Duration : 1h 55mn
Bit rate : 5 010 Kbps
Width : 1 280 pixels
Height : 692 pixels
Display aspect ratio : 1.850
Frame rate : 24.000 fps
Color space : YUV
Chroma subsampling : 4:2:0
Bit depth : 8 bits
Scan type : Progressive
Bits/(Pixel*Frame) : 0.236
Stream size : 3.95 GiB (90%)
Writing library : x264 core 130 r2273 b3065e6
Encoding settings : cabac=1 / ref=5 / deblock=1:-1:-1 / analyse=0x3:0x113 / me=umh / subme=9 / psy=1 / psy_rd=1.00:0.15 / mixed_ref=1 / me_range=32 / chroma_me=1 / trellis=1 / 8x8dct=1 / cqm=0 / deadzone=21,11 / fast_pskip=0 / chroma_qp_offset=-3 / threads=3 / lookahead_threads=1 / sliced_threads=0 / nr=0 / decimate=1 / interlaced=0 / bluray_compat=0 / constrained_intra=0 / bframes=3 / b_pyramid=2 / b_adapt=1 / b_bias=0 / direct=1 / weightb=1 / open_gop=0 / weightp=2 / keyint=240 / keyint_min=24 / scenecut=40 / intra_refresh=0 / rc_lookahead=40 / rc=2pass / mbtree=1 / bitrate=5010 / ratetol=1.0 / qcomp=0.60 / qpmin=0 / qpmax=69 / qpstep=4 / cplxblur=20.0 / qblur=0.5 / ip_ratio=1.40 / aq=1:1.00
Language : Italian

Audio #1
ID : 2
Format : AC-3
Format/Info : Audio Coding 3
Mode extension : CM (complete main)
Muxing mode : Header stripping
Codec ID : A_AC3
Duration : 1h 55mn
Bit rate mode : Constant
Bit rate : 192 Kbps
Channel(s) : 2 channels
Channel positions : Front: L R
Sampling rate : 48.0 KHz
Bit depth : 16 bits
Stream size : 158 MiB (4%)
Language : Spanish

Audio #2
ID : 3
Format : AC-3
Format/Info : Audio Coding 3
Format profile : Dolby Digital
Mode extension : CM (complete main)
Muxing mode : Header stripping
Codec ID : A_AC3
Duration : 1h 55mn
Bit rate mode : Constant
Bit rate : 224 Kbps
Channel(s) : 2 channels
Channel positions : Front: L R
Sampling rate : 48.0 KHz
Bit depth : 16 bits
Stream size : 185 MiB (4%)
Language : Italian

Text #1
ID : 4
Format : UTF-8
Codec ID : S_TEXT/UTF8
Codec ID/Info : UTF-8 Plain Text
Title : FORZADOS
Language : Spanish

Text #2
ID : 5
Format : UTF-8
Codec ID : S_TEXT/UTF8
Codec ID/Info : UTF-8 Plain Text
Language : Spanish

Text #3
ID : 6
Format : UTF-8
Codec ID : S_TEXT/UTF8
Codec ID/Info : UTF-8 Plain Text
Language : Italian





BluRay HD 720p Dual (Ita-ItaCom)+S (versión restaurada)
detalles técnicos u otros: mostrar contenido
Portada
** Lucky Red (Italia, 2013) / 1.85:1 / 115 m. **
BluRay.com

Datos técnicos:
** HD 720p Dual (Ita+ItaCom)+SI(srt) / 1280x692 (1.85:1 / 1.850) / 01:55:14 (115 m.) / Chapters **
** IMDb AR 1.85:1 / Runtime: 112 min | 115 min (1970 Norway) / 114 m. (Cinematografo) **

Código: Seleccionar todo
General
Complete name                            : Investigation.of.a.Citizen.Above.Suspicion.1970.720p.BluRay.x264-PSiF.mkv
Format                                   : Matroska
Format version                           : Version 4 / Version 2
File size                                : 4.37 GiB
Duration                                 : 1h 55mn
Overall bit rate                         : 5 428 Kbps
Movie name                               : Indagine su un cittadino al di sopra di ogni sospetto (Elio Petri, 1970)
Encoded date                             : UTC 2013-06-24 06:05:53
Writing application                      : mkvmerge v6.1.0 ('Old Devil') built on Mar  2 2013 14:32:37
Writing library                          : libebml v1.3.0 + libmatroska v1.4.0

Video
ID                                       : 1
Format                                   : AVC
Format/Info                              : Advanced Video Codec
Format profile                           : High@L4.1
Format settings, CABAC                   : Yes
Format settings, ReFrames                : 5 frames
Codec ID                                 : V_MPEG4/ISO/AVC
Duration                                 : 1h 55mn
Bit rate                                 : 5 010 Kbps
Width                                    : 1 280 pixels
Height                                   : 692 pixels
Display aspect ratio                     : 1.85:1
Frame rate mode                          : Constant
Frame rate                               : 24.000 fps
Color space                              : YUV
Chroma subsampling                       : 4:2:0
Bit depth                                : 8 bits
Scan type                                : Progressive
Bits/(Pixel*Frame)                       : 0.236
Stream size                              : 3.95 GiB (90%)
Writing library                          : x264 core 130 r2273 b3065e6
Encoding settings                        : cabac=1 / ref=5 / deblock=1:-1:-1 / analyse=0x3:0x113 / me=umh / subme=9 / psy=1 / psy_rd=1.00:0.15 / mixed_ref=1 / me_range=32 / chroma_me=1 / trellis=1 / 8x8dct=1 / cqm=0 / deadzone=21,11 / fast_pskip=0 / chroma_qp_offset=-3 / threads=3 / lookahead_threads=1 / sliced_threads=0 / nr=0 / decimate=1 / interlaced=0 / bluray_compat=0 / constrained_intra=0 / bframes=3 / b_pyramid=2 / b_adapt=1 / b_bias=0 / direct=1 / weightb=1 / open_gop=0 / weightp=2 / keyint=240 / keyint_min=24 / scenecut=40 / intra_refresh=0 / rc_lookahead=40 / rc=2pass / mbtree=1 / bitrate=5010 / ratetol=1.0 / qcomp=0.60 / qpmin=0 / qpmax=69 / qpstep=4 / cplxblur=20.0 / qblur=0.5 / ip_ratio=1.40 / aq=1:1.00
Default                                  : Yes
Forced                                   : No

Audio #1
ID                                       : 2
Format                                   : AC-3
Format/Info                              : Audio Coding 3
Format profile                           : Dolby Digital
Mode extension                           : CM (complete main)
Format settings, Endianness              : Big
Codec ID                                 : A_AC3
Duration                                 : 1h 55mn
Bit rate mode                            : Constant
Bit rate                                 : 224 Kbps
Channel(s)                               : 2 channels
Channel positions                        : Front: L R
Sampling rate                            : 48.0 KHz
Bit depth                                : 16 bits
Compression mode                         : Lossy
Stream size                              : 185 MiB (4%)
Language                                 : Italian
Default                                  : Yes
Forced                                   : No

Audio #2
ID                                       : 3
Format                                   : AC-3
Format/Info                              : Audio Coding 3
Format profile                           : Dolby Digital
Mode extension                           : CM (complete main)
Format settings, Endianness              : Big
Codec ID                                 : A_AC3
Duration                                 : 1h 55mn
Bit rate mode                            : Constant
Bit rate                                 : 192 Kbps
Channel(s)                               : 2 channels
Channel positions                        : Front: L R
Sampling rate                            : 48.0 KHz
Bit depth                                : 16 bits
Compression mode                         : Lossy
Stream size                              : 158 MiB (4%)
Title                                    : Commentary
Language                                 : Italian
Default                                  : No
Forced                                   : No

Menu
00:00:00.000                             : en:Chapter 1
00:09:40.000                             : en:Chapter 2
00:19:10.417                             : en:Chapter 3
00:30:35.083                             : en:Chapter 4
00:39:44.375                             : en:Chapter 5
00:48:42.000                             : en:Chapter 6
00:56:46.833                             : en:Chapter 7
01:07:37.417                             : en:Chapter 8
01:23:22.875                             : en:Chapter 9
01:36:52.250                             : en:Chapter 10
01:51:01.833                             : en:Chapter 11
01:53:57.000                             : en:Chapter 12
detalles técnicos u otros: mostrar contenido
Capturas:
Imagen Imagen Imagen
Imagen Imagen
Imagen Imagen
Imagen Imagen Imagen





Relacionado:

    Portada
    Monografías. (Italia)
    Neorrealismo, edad de oro del cine italiano y cine italiano contemporáneo....
    Portada
    Monografías. (Italia, 1933-1994)
    Actor italiano cuya versatilidad interpretando se enlazaba con un compromiso político, siendo que todos sus personajes se conjugan para dar lugar a una crítica revolucionaria del régimen burgués....


[ Add all 4 links to your ed2k client ]

Nota Vie Sep 27, 2013 4:42 pm
Il capo della Squadra Omicidi di una grande città, soprannominato il "dottore", viene promosso per i suoi meriti a dirigente dell'Ufficio Politico della Questura. Proprio nel giorno della promozione, l'alto funzionario, che sotto l'apparente sicurezza e disinvoltura nasconde una psicologia perversa, uccide Augusta Terzi, la propria amante, dalla quale è sempre stato costantemente deriso. Anziché preoccuparsi di non lasciare tracce del delitto, l'assassino, certo di essere al di sopra di ogni sospetto in forza della posizione di potere che occupa, si impegna paradossalmente a moltiplicare gli indizi a proprio carico: le indagini intraprese dai suoi collaboratori - come egli aveva previsto - non lo sfiorano neppure. In seguito allo scoppio di una bomba nella centrale stessa della polizia, vengono fermati alcuni contestatori; tra questi c'è uno studente, Antonio Pace, che rivela al "dottore" di riconoscere in lui l'autore del delitto. Dopo essersi autodenunciato ai suoi superiori, il funzionario, ritiratosi nel proprio appartamento, immagina nella sua fantasia esaltata la più probabile soluzione del caso: per quanto numerose e schiaccianti possano essere le prove del suo crimine, i suoi superiori, più timorosi di uno scandalo che desiderosi di servire la giustizia, le smantelleranno ad una ad una, perché egli, come poliziotto, non può essere che al di sopra di ogni sospetto. (Cinematografo)

"Attraverso un caso patologico, il film, dotato di una robusta struttura narrativa e realizzato con un linguaggio asciutto e un ritmo quasi sempre teso, cerca di dimostrare a quali aberrazioni personali e rischi collettivi conduca l'esercizio del potere sottratto a ogni controllo. Buona l'interpretazione, soprattutto quella del personaggio centrale." ('Segnalazioni cinematografiche', vol. 69, 1970)

AMG SYNOPSIS: Better known as Investigation of a Citizen Above Suspicion, this Oscar-winning political drama stars Gian Maria Volonte as the citizen of the title, an unnamed police inspector. The story finds the inspector calmly cutting his mistress' throat, then planting evidence that will clear him of accusation -- and attempting to evade arrest by virtue of his "clean" public image. Elio Petri's own anti-establishment stance was never more pronounced than in this film, where the truth is whatever the ruling class chooses to acknowledge. The original Italian title of Investigation of a Citizen Above Suspicion was Indagine su un Cittadino al di Sopra di Ogna Sospetto. -- Hal Erickson

AMG REVIEW: This 1971 winner of the Best Foreign Film award at the Oscars is a controversial, memorable piece of work. The twisty-turny narrative of Indagine su un Cittadino al di Sopra di Ogni Sospetto goes over the top with its political content (comparing police authority and fascism in ways that will make conservative viewers squirm) but its thriller elements work like a charm, creating an almost suffocating atmosphere of paranoia that becomes more intense as it reaches its end. Elio Petri's directorial approach rises up to meet the demands of the narrative, making effective use of lush photography from Luigi Kuveiller and a quirky score from Ennio Morricone to create a setting for the tale that is alluring, horrifying and blackly comedic by turns. However, the most important elements to selling the world of Indagine su un Cittadino al di Sopra di Ogni Sospetto is the performances. Thankfully, they deliver the necessary flesh-and-blood intensity: Gian Maria Volonte is frightfully convincing as the anti-hero, a man whose inner turmoil expresses itself through a desire to twist and control the lives of others, and Florinda Bolkan is seductive and chilly by turns as the free-thinking object of his romantic obsession. In short, Indagine su un Cittadino al di Sopra di Ogni Sospetto remains a disorienting and effective piece of agit-prop, even if one doesn't agree with its messages. -- Donald Guarisco

    Críticas
    - Investigación sobre un ciudadano libre de toda sospecha, El Crítico Abúlico.
    - Investigación sobre un ciudadano libre de toda sospecha (1970), ludovicolonghi.
    - "El corrupto brazo de la ley", por Fantomas. CinemaScope.

[Editado por el comité de RBM para incluir el enlace en el primer mensaje. Muchas gracias, compañero marlowe62.]




Salud.



Volver a Largometrajes de ficción

Antes de empezar, un par de cosas:

Puedes usar las redes sociales para enterarte de las novedades o ayudarnos a difundir lo que encuentres.
Si ahora no te apetece, puedes hacerlo cuando quieras con los botones de arriba.

Facebook Twitter
Telegram YouTube

Sí, usamos cookies. Puedes ver para qué las usamos y cómo quitarlas o simplemente puedes aceptarlo.