RebeldeMule

Boiling Point (Takeshi Kitano, 1990)

Drama, comedia, suspense; a veces a caballo entre la ficción y la realidad, pero siempre cine para pensar con sentido crítico lo social.
Boiling Point
3-4x juugatsu
Takeshi Kitano (Japón, 1990) [96 min]

Portada
IMDb
(Wikipedia | Filmaffinity)


Sinopsis:

    Dos miembros de un equipo de baseball junior se ven mezclados con la yakuza local. Después de que su entrenador sea herido por ellos, los dos chicos se van a Okinawa para hacerse con un arma y vengarse. Allí, los dos jóvenes se hacen amigos de un psicótico yakuza retirado llamado Uehara (Kitano), que tiene una deuda pendiente con la yakuza, por lo que no duda en acompañar a los dos chicos a Tokio y enfrentarse con la mafia japonesa.

In Takeshi Kitano's quirky second film, Masaki (Masahiko Ono), a quiet baseball-playing gas station attendant, runs into trouble with the local yakuza. Masaki's baseball coach, Iguchi (Takahito Iguchi), turns out to be a former yakuza and attempts to straighten out the situation but only winds up making things worse. In order to stand up for himself, Masaki, along with his friend Kazuo (Minoru Iizuka), heads to Okinawa to buy a gun. There the two encounter tough guy Uehara (Kitano, acting under his alias, Beat Takeshi) and his all-too-loyal henchman, Tamagi (Katsuo Tokashiki), who are both in trouble with the yakuza as well. After various odd incidents, Uehara helps Masaki and Kazuo acquire a gun. When they attempt to use the weapon, however, the result sets the groundwork for an explosive climax.


Ficha técnica

    Música: Varios.
    Fotografía: Katsumi Yanagishima.
    Productora: Shochiku-Fuji Company, Bandai Visual Co. Ltd., Yamada Right Vision Corporation.

Reparto:

    Takeshi Kitano, Yûrei Yanagi, Yuriko Ishida, Gadarukanaru Taka, Eri Fuse, Masahiko Ono, Takahito Iguchi, Minoru Iizuka, Makoto Ashikawa.

Idioma original: Japonés.





DVDRip VOS - AVI
detalles técnicos u otros: mostrar contenido
Info técnica / Technical data
Código: Seleccionar todo
Video
Format                           : MPEG-4 Visual
Format profile                   : AdvancedSimple@L5
Format settings, BVOP            : Yes
Format settings, QPel            : No
Format settings, GMC             : No warppoints
Format settings, Matrix          : Default (MPEG)
Codec ID                         : XVID
Codec ID/Hint                    : XviD
Duration                         : 1h 36mn
Bit rate                         : 1 957 Kbps
Width                            : 720 pixels
Height                           : 400 pixels
Display aspect ratio             : 16:9
Frame rate                       : 23.976 fps
Resolution                       : 24 bits
Colorimetry                      : 4:2:0
Scan type                        : Progressive
Bits/(Pixel*Frame)               : 0.283
Stream size                      : 1.32 GiB (91%)
Writing library                  : XviD 1.2.1 (UTC 2008-12-04)

Audio
Format                           : AC-3
Format/Info                      : Audio Coding 3
Codec ID                         : 2000
Duration                         : 1h 36mn
Bit rate mode                    : Constant
Bit rate                         : 192 Kbps
Channel(s)                       : 2 channels
Channel positions                : L R
Sampling rate                    : 48.0 KHz
Stream size                      : 133 MiB (9%)
Alignment                        : Split accross interleaves
Interleave, duration             : 42 ms (1.00 video frame)
Interleave, preload duration     : 500 ms


Volver a Largometrajes de ficción

Antes de empezar, un par de cosas:

Puedes usar las redes sociales para enterarte de las novedades o ayudarnos a difundir lo que encuentres.
Si ahora no te apetece, puedes hacerlo cuando quieras con los botones de arriba.

Facebook Twitter
Telegram YouTube

Sí, usamos cookies. Puedes ver para qué las usamos y cómo quitarlas o simplemente puedes aceptarlo.