RebeldeMule

El manantial de la doncella (Ingmar Bergman, 1960)

Drama, comedia, suspense; a veces a caballo entre la ficción y la realidad, pero siempre cine para pensar con sentido crítico lo social.
El manantial de la doncella
Jungfrukällan / The Virgin Spring
Ingmar Bergman (Suecia, 1960) [B/N, 88 min]

Portada Portada
IMDb
(Wikipedia | Filmaffinity)


Sinopsis:

    Suecia en el siglo XIV. Cada verano una doncella debe hacer la ofrenda de las velas en el altar de la Virgen. El rey Töre envía a Karin, hija del propio rey y de la reina Mareta, acompañada de Ingrid, una muchacha acogida en casa de Töre que odia a Karin secretamente. Antes de cruzar el bosque, Ingrid se detiene y deja a Karin sola. Karin prosigue su camino encontrándose a unos pastores, aparentemente afables, que la invitan a compartir su comida...

    In Sweden, in the Fourteenth Century, Karin is the favorite and virgin daughter of the religious Töre and Märeta. She is the pride and joy of her family. On the day of Our Lady of Virgins, her father asks her to go to a distant church with her pregnant stepsister and carry some candle for Our Lady. On the way through the woods, the naive girl leaves her stepsister resting in a small farm and continues her journey alone. She meets three shepherd brothers and invites them to share her food. Then, they rape and kill her, under the eyes of her hidden stepsister. The same night, the three brothers arrive and look for shelter at her home...

Ficha técnica

    Guión: Ulla Isaksson.
    Música: Erik Nordgren.
    Fotografía: Sven Nykvist.
    Productora: Svensk Filmindustri.

Reparto:

    Max von Sydow (Töre), Birgitta Valberg (Märeta), Gunnel Lindblom (Ingeri), Birgitta Pettersson (Karin), Axel Düberg (Thin Herdsman), Tor Isedal (Mute Herdsman), Allan Edwall (Beggar), Ove Porath (Boy).

Premios:

    1960: Oscar: Mejor película de habla no inglesa. Nominada a Mejor vestuario en B&N.
    1960: Globo de Oro: Mejor película extranjera (Samuel Goldwyn Award).
    1960: Festival de Cannes: Mención especial. Nominada a la Palma de Oro.
    1961: Festival de Seminci: Espiga de Oro: Mejor película.

Idioma original: Sueco, alemán.





DVDRip VOS - AVI (Ripped from Criterion Edition)
detalles técnicos u otros: mostrar contenido
Info técnica / Technical info

Código: Seleccionar todo
Video
Format settings, BVOP            : Yes
Format settings, QPel            : No
Format settings, GMC             : No warppoints
Format settings, Matrix          : Default (MPEG)
Codec ID                         : XVID
Codec ID/Hint                    : XviD
Duration                         : 1h 29mn
Bit rate                         : 3 290 Kbps
Width                            : 640 pixels
Height                           : 480 pixels
Display aspect ratio             : 4:3
Frame rate                       : 23.976 fps
Resolution                       : 24 bits
Colorimetry                      : 4:2:0
Scan type                        : Progressive
Bits/(Pixel*Frame)               : 0.447
Stream size                      : 2.06 GiB (94%)

Audio
Format                           : AC-3
Duration                         : 1h 29mn
Bit rate mode                    : Constant
Bit rate                         : 192 Kbps
Channel(s)                       : 1 channel
Channel positions                : C
Sampling rate                    : 48.0 KHz
Stream size                      : 123 MiB (5%)
Alignment                        : Split accross interleaves
Interleave, duration             : 42 ms (1.00 video frame)
Interleave, preload duration     : 500 ms


Volver a Largometrajes de ficción

Antes de empezar, un par de cosas:

Puedes usar las redes sociales para enterarte de las novedades o ayudarnos a difundir lo que encuentres.
Si ahora no te apetece, puedes hacerlo cuando quieras con los botones de arriba.

Facebook Twitter
Telegram YouTube

Sí, usamos cookies. Puedes ver para qué las usamos y cómo quitarlas o simplemente puedes aceptarlo.