RebeldeMule

Saló o 120 días de Sodoma (Pier Paolo Pasolini, 1975)

Drama, comedia, suspense; a veces a caballo entre la ficción y la realidad, pero siempre cine para pensar con sentido crítico lo social.
Saló o los 120 días de Sodoma
Salò o le 120 giornate di Sodoma
Pier Paolo Pasolini (Italia, 1975) [117 min]

Portada
IMDb
(wikipedia | filmaffinity)


Sinopsis:

    [fuente] En una mansión, cuatro señores se reunen con cuatro ex-prostitutas y con un grupo de muchachos y muchachas, partisanos o hijos de partisanos, que han tomado prisioneros. En la casa impera el reglamento de los señores, al cual nadie puede escapar. Esta ley faculta a los señores para disponer de la vida de sus prisioneros en cualquier momento y de cualquier modo, y las transgresiones se castigan con la muerte.

Marc, en @libroscinecómic, el 22 de septiembre de 2017, escribió:Pasolini trae a Sade a la Italia fascista mostrando la infamia del poder y la obscena impunidad en un film tan brillante como perturbador.


Ficha técnica


Reparto:

  • Paolo Bonacelli (The Duke).
  • Giorgio Cataldi (The Bishop).
  • Umberto Paolo Quintavalle (Chief Magistrate).
  • Aldo Valletti (The President).
  • Caterina Boratto (Signora Castelli).
  • Elsa De Giorgi (Signora Vaccari).
  • Hélène Surgère (Signora Vaccari).
  • Sonia Saviange (The Piano Virtuoso).

Idioma original: Italiano.





DVDRip VOS - MKV
detalles técnicos u otros: mostrar contenido
Código: Seleccionar todo
               Title: Salo, or the 120 Days of Sodom (1975)
                      Salò o le 120 giornate di Sodoma
              Source: DVD Retail / R1, NTSC / Criterion
                Size: 1.564.470.146 bytes (1/3 DVDR)
             Runtime: 01:56:43
              Format: MKV

         Video Codec: H264 (x264 rev.987)
       Video Bitrate: 1592 kbps
          Resolution: 716x464 (Anamorphic, displayed at 1.85 AR)
        Aspect Ratio: 1.85 (SAR: 32/27)
          Frame rate: 23.976 fps

         Audio Codec: AC3 (mono)
       Audio Bitrate: 192 kbps
       Sampling Rate: 48 KHz

            Language: Italian
Subtitles (muxed in): English (SRT)

                  SA: HP @ Level 4.1





DVDRip Dual - AVI
detalles técnicos u otros: mostrar contenido
General
Formato : AVI
Formato/Info : Audio Video Interleave
Tamaño del archivo : 1,68GIB
Duración : 1h 51min.
Tasa de bits total : 2 148Kbps
Aplicación de codifición : VirtualDubMod 1.5.10.2 (build 2540/release)
Librería de codificación : VirtualDubMod build 2540/release

Video
ID : 0
Formato : MPEG-4 Visual
Formato del perfil : Advanced Simple@L5
Ajustes del formato, BVOP : 1
Ajustes del formato, Qpel : No
Ajustes del formato, GMC : No warppoints
Ajustes del formato, Matrix : Default (MPEG)
ID Códec : XVID
ID Códec/Pista : XviD
Duración : 1h 51min.
Tasa de bits : 1 750Kbps
Ancho : 720pixeles
Alto : 420pixeles
Relación de aspecto : 1,714
Velocidad de cuadro : 25,000fps
ColorSpace : YUV
ChromaSubsampling : 4:2:0
BitDepth/String : 8bits
Tipo de exploración : Progresivo
Bits/(Pixel*cuadro) : 0.231
Tamaño de pista : 1,37GIB (81%)
Librería de codificación : XviD 1.2.1 (UTC 2008-12-04)

Audio #1
ID : 1
Formato : AC-3
Formato/Info : Audio Coding 3
Format_Settings_ModeExtension : CM (complete main)
Ajustes del formato, Endianness : Big
ID Códec : 2000
Duración : 1h 51min.
Tipo de tasa de bits : Constante
Tasa de bits : 192Kbps
Canal(es) : 2canales
Posiciones del canal : Front: L R
Velocidad de muestreo : 48,0KHz
BitDepth/String : 16bits
Tamaño de pista : 153MB (9%)
Alineación : Dividir a través entrelazado
Entrelazado, duración : 40 ms (1,00fotograma de video)
Entrelazado, duración de precarga : 500 ms

Audio #2
ID : 2
Formato : AC-3
Formato/Info : Audio Coding 3
Format_Settings_ModeExtension : CM (complete main)
Ajustes del formato, Endianness : Big
ID Códec : 2000
Duración : 1h 51min.
Tipo de tasa de bits : Constante
Tasa de bits : 192Kbps
Canal(es) : 2canales
Posiciones del canal : Front: L R
Velocidad de muestreo : 48,0KHz
BitDepth/String : 16bits
Tamaño de pista : 153MB (9%)
Alineación : Dividir a través entrelazado
Entrelazado, duración : 40 ms (1,00fotograma de video)
Entrelazado, duración de precarga : 500 ms





HDRip VE - AVI (XviD-AC3) (fuente)
detalles técnicos u otros: mostrar contenido
General
Complete name : Salo.o.los.120.dias.de.sodoma.(Spanish).HDrip.XviD-AC3.(exploradoresp2p.com).avi
Format : AVI
Format/Info : Audio Video Interleave
File size : 1.63 GiB
Duration : 1 h 56 min
Overall bit rate : 1 996 kb/s
Writing application : VirtualDubMod 1.5.10.2 (build 2540/release)
Writing library : VirtualDubMod build 2540/release

Video
ID : 0
Format : MPEG-4 Visual
Format profile : Advanced Simple@L5
Format settings : BVOP2
Format settings, BVOP : 2
Format settings, QPel : No
Format settings, GMC : No warppoints
Format settings, Matrix : Default (MPEG)
Codec ID : XVID
Codec ID/Hint : XviD
Duration : 1 h 56 min
Bit rate : 1 795 kb/s
Width : 720 pixels
Height : 390 pixels
Display aspect ratio : 1.85:1
Frame rate : 23.976 (24000/1001) FPS
Color space : YUV
Chroma subsampling : 4:2:0
Bit depth : 8 bits
Scan type : Progressive
Compression mode : Lossy
Bits/(Pixel*Frame) : 0.267
Stream size : 1.46 GiB (90%)
Writing library : XviD 64

Audio
ID : 1
Format : AC-3
Format/Info : Audio Coding 3
Commercial name : Dolby Digital
Codec ID : 2000
Duration : 1 h 56 min
Bit rate mode : Constant
Bit rate : 192 kb/s
Channel(s) : 2 channels
Channel layout : L R
Sampling rate : 48.0 kHz
Frame rate : 31.250 FPS (1536 SPF)
Bit depth : 16 bits
Compression mode : Lossy
Stream size : 160 MiB (10%)
Alignment : Split accross interleaves
Interleave, duration : 42 ms (1.00 video frame)
Interleave, preload duration : 500 ms
Service kind : Complete Main



[ Add all 4 links to your ed2k client ]

Nota Mié Ene 21, 2009 3:59 pm
Una gran película, muchas veces cuestionada por la crudeza de sus imágenes, pero es una gran obra cargada de simbolismo y autenticidad.

Nota Sab Ene 12, 2013 5:05 pm
Copia dual de proteinicos:

[Editado por el comité de RBM para incluir los enlaces en el primer mensaje. Muchas gracias, compañero fonsorojo.]



Volver a Largometrajes de ficción

Antes de empezar, un par de cosas:

Puedes usar las redes sociales para enterarte de las novedades o ayudarnos a difundir lo que encuentres.
Si ahora no te apetece, puedes hacerlo cuando quieras con los botones de arriba.

Facebook Twitter
Telegram YouTube

Sí, usamos cookies. Puedes ver para qué las usamos y cómo quitarlas o simplemente puedes aceptarlo.