RebeldeMule

Diarios de motocicleta (Walter Salles, 2004)

Drama, comedia, suspense; a veces a caballo entre la ficción y la realidad, pero siempre cine para pensar con sentido crítico lo social.
Diarios de motocicleta
The motorcycle diaries (título internacional)
Walter Salles (EE.UU., Francia, Reino Unido, Alemania, Argentina, Chile, Perú, 2004) [128 min]

Portada
IMDb
(wikipedia | filmaffinity)


Sinopsis:

    En 1952, siendo Ernesto Guevara (Gael García Bernal) estudiante de medicina, recorrió América del Sur, con su amigo Alberto Granado (Rodrigo de la Serna), en una destartalada moto. Ernesto es un joven estudiante de medicina de 23 años de edad, especializado en lepra. Alberto es un bioquímico de 29 años. Ambos jóvenes emprenden un viaje de descubrimiento de la rica y compleja topografía humana y social del continente hispanoamericano. Los dos dejaron atrás el familiar entorno de Buenos Aires en una desvencijada motocicleta Norton de 500 cc, imbuidos de un romántico espíritu aventurero.

Comentario personal:

    Bueno, leí en un foro de cine algo muy concreto… la película está realizada por una coproducción súper multinacional (siete países), por lo que creo que hay que tener una mirada especial, no quedarse con la primera impresión que nos deje este vídeo, es decir, tomarlo con "pinzas". Y según dicen… esta peli es una adaptación verdaderamente cinematográfica de las cartas del Che y del testimonio de su compañero de ruta. A mí me gustó por lo poco que conozco de Ernesto, lástima que al parecer tenga algunas intenciones comerciales, pero vale la pena, se los aseguro. Aquí la dejo en buenas manos.

Ficha técnica

    Guión: José Rivera, basado en las publicaciones de Ernesto Guevara y de Alberto Granado.
    Música: Gustavo Santaolalla.
    Fotografía: Eric Gautier.
    Productora: Filmfour / South Fork Pictures / Tu Vas Voir Production.

Reparto:


Idioma original: Castellano.





DVDRip VO - AVI
detalles técnicos u otros: mostrar contenido
General
Nombre completo : Diarios de motocicleta (Walter Salles, 2004) Spanish.XviD.Mp3.DVDRip.By.FreAk.TEAm.avi
Formato : AVI
Formato/Info : Audio Video Interleave
Tamaño del archivo : 698MB
Duración : 2h 0min.
Tasa de bits total : 809Kbps
Aplicación de codifición : VirtualDubMod 1.5.10.1 (build 2439/release)
Librería de codificación : VirtualDubMod build 2439/release

Video
ID : 0
Formato : MPEG-4 Visual
Formato del perfil : Simple@L3
Ajustes del formato, BVOP : 2
Ajustes del formato, Qpel : No
Ajustes del formato, GMC : No warppoints
Ajustes del formato, Matrix : Default (H.263)
ID Códec : XVID
ID Códec/Pista : XviD
Duración : 2h 0min.
Tasa de bits : 671Kbps
Ancho : 512pixeles
Alto : 272pixeles
Relación de aspecto : 1,882
Velocidad de cuadro : 25,000fps
ColorSpace : YUV
ChromaSubsampling : 4:2:0
BitDepth/String : 8bits
Tipo de exploración : Progresivo
Bits/(Pixel*cuadro) : 0.193
Tamaño de pista : 579MB (83%)
Librería de codificación : XviD 1.0.2 (UTC 2004-08-29)

Audio
ID : 1
Formato : MPEG Audio
Formato de la versión : Version 1
Formato del perfil : Layer 3
Format_Settings_Mode : Joint stereo
Format_Settings_ModeExtension : MS Stereo
ID Códec : 55
ID Códec/Pista : MP3
Duración : 2h 0min.
Tipo de tasa de bits : Constante
Tasa de bits : 128Kbps
Canal(es) : 2canales
Velocidad de muestreo : 48,0KHz
Tamaño de pista : 110MB (16%)
Alineación : Alineación entrelazado
Entrelazado, duración : 40 ms (1,00fotograma de video)
Entrelazado, duración de precarga : 504 ms





DVDRip VO - AVI
detalles técnicos u otros: mostrar contenido
VIDEO: xvid 560x288 bitrate 723
AUDIO: MP3 2 canales a 140





DVDRip VO - AVI (fuente)
detalles técnicos u otros: mostrar contenido
General
Nombre completo : Diariosdemotocicleta(7,3Dra)(2004WalterSalles).Spanish-DVDRip.(XviD-AC3).avi
Formato : AVI
Formato/Info : Audio Video Interleave
Tamaño del archivo : 1,37GIB
Duración : 2h 0min.
Tasa de bits total : 1 622Kbps
Aplicación de codifición : VirtualDubMod 1.5.10.1 (build 2439/release)
Librería de codificación : VirtualDubMod build 2439/release

Video
ID : 0
Formato : MPEG-4 Visual
Formato del perfil : Advanced Simple@L5
Ajustes del formato, BVOP : 1
Ajustes del formato, Qpel : No
Ajustes del formato, GMC : No warppoints
Ajustes del formato, Matrix : Default (MPEG)
ID Códec : XVID
ID Códec/Pista : XviD
Duración : 2h 0min.
Tasa de bits : 1 165Kbps
Ancho : 616pixeles
Alto : 328pixeles
Relación de aspecto : 1,85:1
Velocidad de cuadro : 25,000fps
ColorSpace : YUV
ChromaSubsampling : 4:2:0
BitDepth/String : 8bits
Tipo de exploración : Progresivo
Bits/(Pixel*cuadro) : 0.231
Tamaño de pista : 1 005MB (72%)
Librería de codificación : XviD 1.0.2 (UTC 2004-08-29)

Audio
ID : 1
Formato : AC-3
Formato/Info : Audio Coding 3
Format_Settings_ModeExtension : CM (complete main)
Ajustes del formato, Endianness : Big
ID Códec : 2000
Duración : 2h 0min.
Tipo de tasa de bits : Constante
Tasa de bits : 448Kbps
Canal(es) : 6canales
Posiciones del canal : Front: L C R, Side: L R, LFE
Velocidad de muestreo : 48,0KHz
BitDepth/String : 16bits
Tamaño de pista : 387MB (28%)
Alineación : Dividir a través entrelazado
Entrelazado, duración : 40 ms (1,00fotograma de video)
Entrelazado, duración de precarga : 500 ms





BDRip 720p VO - MKV (fuente)
detalles técnicos u otros: mostrar contenido
Complete name : Diarios de una motocicleta.Bdrip.m-720p.AC3.x.lagartish.mkv
Format : Matroska
File size : 2.83 GiB
Duration : 2h 5mn
Overall bit rate : 3 214 Kbps
Movie name : Diarios de una motocicleta x lagartish
Encoded date : UTC 2011-11-19 23:23:43
Writing application : mkvmerge v4.8.0 ('I Got The...') creado el May 23 2011 22:30:05
Writing library : ibebml v1.2.0 + libmatroska v1.1.0
Video
ID : 1
Format : AVC
Format/Info : Advanced Video Codec
Format profile : High@L4.0
Format settings, CABAC : Yes
Format settings, ReFrames : 8 frames
Codec ID : V_MPEG4/ISO/AVC
Duration : 2h 5mn
Bit rate : 2 766 Kbps
Width : 1 280 pixels
Height : 688 pixels
Display aspect ratio : 1.860
Frame rate : 23.976 fps
Color space : YUV
Chroma subsampling : 4:2:0
Bit depth : 8 bits
Scan type : Progressive
Bits/(Pixel*Frame) : 0.131
Stream size : 2.43 GiB (86%)
Encoding settings : cabac=1 / ref=8 / deblock=1:-1:-1 / analyse=0x3:0x133 / me=umh / subme=9 / psy_rd=1.0:0.0 / mixed_ref=1 / me_range=40 / chroma_me=1 / trellis=2 / 8x8dct=1 / cqm=0 / deadzone=21,11 / chroma_qp_offset=-2 / threads=3 / nr=0 / decimate=1 / mbaff=0 / bframes=5 / b_pyramid=1 / b_adapt=2 / b_bias=0 / direct=1 / wpredb=1 / keyint=250 / keyint_min=25 / scenecut=40 / rc=crf / crf=22.0 / qcomp=0.60 / qpmin=10 / qpmax=51 / qpstep=4 / ip_ratio=1.40 / pb_ratio=1.30 / aq=1:1.00
Language : English
Audio
ID : 2
Format : AC-3
Format/Info : Audio Coding 3
Mode extension : CM (complete main)
Codec ID : A_AC3
Duration : 2h 5mn
Bit rate mode : Constant
Bit rate : 384 Kbps
Channel(s) : 6 channels
Channel positions : Front: L C R, Side: L R, LFE
Sampling rate : 48.0 KHz
Bit depth : 16 bits
Compression mode : Lossy
Stream size : 346 MiB (12%)
Language : Spanish
Text
ID : 3
Format : UTF-8
Codec ID : S_TEXT/UTF8
Codec ID/Info : UTF-8 Plain Text
Language : English





BDRip Dual (VO - V. rusa) - MKV (fuente 1 - fuente 2)
detalles técnicos u otros: mostrar contenido
http://mediaclub.tv/ Welcome to MediaClub

===================================================================

Unique ID : 219800283061853057391407997552322768450 (0xA55BFEA439607C3F8FB833416FC96E42)
Complete name : E:MCDnevniki.motoziklista.2004.x264.BDRip(AVC)-MediaClubDnevniki.motoziklista.2004.x264.BDRip(AVC)-MediaClub.mkv
Format : Matroska
Format version : Version 2
File size : 4.34 GiB
Duration : 2h 5mn
Overall bit rate : 4 940 Kbps
Movie name : -= Release MediaClub =-
Encoded date : UTC 2014-01-05 16:10:21
Writing application : mkvmerge v5.6.0 ('Kenya Kane') built on May 27 2012 16:44:04
Writing library : libebml v1.2.3 + libmatroska v1.3.0
Attachment : Yes

Video
ID : 1
Format : AVC
Format/Info : Advanced Video Codec
Format profile : High@L4.1
Format settings, CABAC : Yes
Format settings, ReFrames : 11 frames
Codec ID : V_MPEG4/ISO/AVC
Duration : 2h 5mn
Bit rate : 2 697 Kbps
Width : 1 024 pixels
Height : 556 pixels
Display aspect ratio : 1.85:1
Frame rate : 24.000 fps
Color space : YUV
Chroma subsampling : 4:2:0
Bit depth : 8 bits
Scan type : Progressive
Bits/(Pixel*Frame) : 0.197
Stream size : 2.28 GiB (53%)
Title : Dnevniki.motoziklista.2004.x264.BDRip(AVC)-neni
Writing library : x264 core 130 r2273 b3065e6
Encoding settings : cabac=1 / ref=11 / deblock=1:-2:-2 / analyse=0x3:0x113 / me=umh / subme=11 / psy=1 / psy_rd=1.00:0.10 / mixed_ref=1 / me_range=48 / chroma_me=1 / trellis=2 / 8x8dct=1 / cqm=0 / deadzone=21,11 / fast_pskip=0 / chroma_qp_offset=-3 / threads=9 / lookahead_threads=1 / sliced_threads=0 / nr=0 / decimate=0 / interlaced=0 / bluray_compat=0 / constrained_intra=0 / bframes=8 / b_pyramid=2 / b_adapt=2 / b_bias=0 / direct=3 / weightb=1 / open_gop=0 / weightp=2 / keyint=240 / keyint_min=23 / scenecut=40 / intra_refresh=0 / rc_lookahead=40 / rc=2pass / mbtree=0 / bitrate=2697 / ratetol=1.0 / qcomp=0.60 / qpmin=0 / qpmax=69 / qpstep=4 / cplxblur=20.0 / qblur=0.5 / vbv_maxrate=50000 / vbv_bufsize=50000 / nal_hrd=none / ip_ratio=1.40 / pb_ratio=1.30 / aq=1:1.00
Language : Russian
Default : Yes
Forced : Yes

Audio #1
ID : 2
Format : AC-3
Format/Info : Audio Coding 3
Mode extension : CM (complete main)
Format settings, Endianness : Big
Codec ID : A_AC3
Duration : 2h 5mn
Bit rate mode : Constant
Bit rate : 448 Kbps
Channel(s) : 6 channels
Channel positions : Front: L C R, Side: L R, LFE
Sampling rate : 48.0 KHz
Bit depth : 16 bits
Compression mode : Lossy
Stream size : 403 MiB (9%)
Title :
Language : Russian
Default : Yes
Forced : Yes

Audio #2
ID : 3
Format : AC-3
Format/Info : Audio Coding 3
Mode extension : CM (complete main)
Format settings, Endianness : Big
Codec ID : A_AC3
Duration : 2h 5mn
Bit rate mode : Constant
Bit rate : 448 Kbps
Channel(s) : 6 channels
Channel positions : Front: L C R, Side: L R, LFE
Sampling rate : 48.0 KHz
Bit depth : 16 bits
Compression mode : Lossy
Stream size : 403 MiB (9%)
Title : (Tycoon)
Language : Russian
Default : No
Forced : No

Audio #3
ID : 4
Format : AC-3
Format/Info : Audio Coding 3
Mode extension : CM (complete main)
Format settings, Endianness : Big
Codec ID : A_AC3
Duration : 2h 5mn
Bit rate mode : Constant
Bit rate : 448 Kbps
Channel(s) : 6 channels
Channel positions : Front: L C R, Side: L R, LFE
Sampling rate : 48.0 KHz
Bit depth : 16 bits
Compression mode : Lossy
Stream size : 403 MiB (9%)
Title :
Language : Russian
Default : No
Forced : No

Audio #4
ID : 5
Format : AC-3
Format/Info : Audio Coding 3
Mode extension : CM (complete main)
Format settings, Endianness : Big
Codec ID : A_AC3
Duration : 2h 5mn
Bit rate mode : Constant
Bit rate : 448 Kbps
Channel(s) : 6 channels
Channel positions : Front: L C R, Side: L R, LFE
Sampling rate : 48.0 KHz
Bit depth : 16 bits
Compression mode : Lossy
Stream size : 403 MiB (9%)
Title :
Language : Russian
Default : No
Forced : No

Audio #5
ID : 6
Format : AC-3
Format/Info : Audio Coding 3
Mode extension : CM (complete main)
Format settings, Endianness : Big
Codec ID : A_AC3
Duration : 2h 5mn
Bit rate mode : Constant
Bit rate : 448 Kbps
Channel(s) : 6 channels
Channel positions : Front: L C R, Side: L R, LFE
Sampling rate : 48.0 KHz
Bit depth : 16 bits
Compression mode : Lossy
Stream size : 403 MiB (9%)
Title :
Language : Spanish
Default : No
Forced : No

Text
ID : 7
Format : UTF-8
Codec ID : S_TEXT/UTF8
Codec ID/Info : UTF-8 Plain Text
Title :
Language : Russian
Default : No
Forced : No

Menu
00:00:00.000 : en:00:00:00.000
00:09:10.167 : en:00:09:10.167
00:22:05.458 : en:00:22:05.458
00:30:18.333 : en:00:30:18.333
00:39:30.083 : en:00:39:30.083
00:52:40.792 : en:00:52:40.792
01:00:14.417 : en:01:00:14.417
01:06:31.250 : en:01:06:31.250
01:21:43.583 : en:01:21:43.583
01:33:24.333 : en:01:33:24.333
01:43:12.875 : en:01:43:12.875
01:55:01.208 : en:01:55:01.208





:str: Reproducción:



[ Add all 3 links to your ed2k client ]

Nota Lun Mar 05, 2007 10:10 pm
Ya está bajando, Juanito.

¡Gracias!

Nota Dom Jul 08, 2012 10:12 am
¡Vista!

Me ha gustado mucho. Creo que transmite de una forma muy humana la transformación de pequeñoburgués a sujeto político revolucionario (no solamente de Ernesto Guevara sino del ser humano en general).

La película tiene momentos muy cómicos que hacen que les cojas verdadero cariño a los personajes. Aunque tal vez un par de secuencias, como las que muestran en forma de fotografía-fogonazo a las personas pobres y enfermas que conoció Guevara, sean innecesarias. El mensaje de cambio y humanismo queda claro sin necesitar de este efecto cinematográfico que resta realismo a la cinta.

Pero sin duda una peli más que recomendable.

Salud.



Volver a Largometrajes de ficción

Antes de empezar, un par de cosas:

Puedes usar las redes sociales para enterarte de las novedades o ayudarnos a difundir lo que encuentres.
Si ahora no te apetece, puedes hacerlo cuando quieras con los botones de arriba.

Facebook Twitter
Telegram YouTube

Sí, usamos cookies. Puedes ver para qué las usamos y cómo quitarlas o simplemente puedes aceptarlo.