RebeldeMule

El factor Pilgrim (Santi Amodeo, Alberto Rodríguez, 2000)

Drama, comedia, suspense; a veces a caballo entre la ficción y la realidad, pero siempre cine para pensar con sentido crítico lo social.
El factor Pilgrim
Santi Amodeo, Alberto Rodríguez (España, 2000) [83 min]

Portada
IMDb
(Filmaffinity)


Sinopsis:

    [fuente] Francisco es un español que lleva un tiempo viviendo en Londres y al que un día le ofrecen una gran cantidad de dinero por una baratija que compró en un mercadillo de su barrio...

Comentario personal:

    Comedia sobre el interés de las industrias discográficas en perpetuar los derechos de autor. El presupuesto de la película fue sólo de tres millones de pesetas.

En La Butaca se escribió:Érase una vez... Un español, un italiano, un sueco y un inglés, un negocio de una libra que acaba transformándose en cien mil, y una leyenda: "La Leyenda de David Pilgrim". Este es el engranaje que mueve a El factor Pilgrim, una historia a medio camino ente la comedia y el cuento, sobre personas anónimas poseedoras accidentales de una prueba que podría poner en duda la autenticidad del grupo de rock más famoso del mundo. Todo ello... en el centro de La Ciudad Pollo (Londres)... una ciudad donde todo es posible... incluso esta historia.


Ficha técnica


Reparto:


Idioma original: Castellano.





¿?Rip VO - AVI





HDTVRip VO - MKV (x264-AC3) (fuente)
detalles técnicos u otros: mostrar contenido
General
Unique ID : 63015587836908757268075975395641659534 (0x2F685C5A9FFB4E591D1BADCA3CB4108E)
Complete name : El.factor.Pilgrim.(Santi.Amodeo,Alberto.Rodriguez,2000).(Spanish).HDTVrip.(Spanish).HDTVRip.x264-AC3.mkv
Format : Matroska
Format version : Version 4
File size : 1.23 GiB
Duration : 1 h 19 min
Overall bit rate : 2 217 kb/s
Encoded date : UTC 2019-02-09 15:08:12
Writing application : mkvmerge v30.1.0 ('Forever And More') 64-bit
Writing library : libebml v1.3.6 + libmatroska v1.4.9

Video
ID : 1
Format : AVC
Format/Info : Advanced Video Codec
Format profile : Main@L4
Format settings : CABAC / 4 Ref Frames
Format settings, CABAC : Yes
Format settings, RefFrames : 4 frames
Codec ID : V_MPEG4/ISO/AVC
Duration : 1 h 19 min
Bit rate : 1 831 kb/s
Width : 1 920 pixels
Height : 1 036 pixels
Display aspect ratio : 1.85:1
Frame rate mode : Variable
Frame rate : 24.939 FPS
Color space : YUV
Chroma subsampling : 4:2:0
Bit depth : 8 bits
Scan type : Progressive
Bits/(Pixel*Frame) : 0.037
Stream size : 1.02 GiB (83%)
Title : El.factor.Pilgrim.(Santi.Amodeo,Alberto.Rodriguez,2000).(Spanish).HDTVrip.x264-AC3.mkv
Default : Yes
Forced : No
Color range : Limited
Color primaries : BT.709
Transfer characteristics : BT.709
Matrix coefficients : BT.709

Audio #1
ID : 2
Format : AC-3
Format/Info : Audio Coding 3
Commercial name : Dolby Digital
Codec ID : A_AC3
Duration : 1 h 19 min
Bit rate mode : Constant
Bit rate : 192 kb/s
Channel(s) : 2 channels
Channel layout : L R
Sampling rate : 48.0 kHz
Frame rate : 31.250 FPS (1536 SPF)
Bit depth : 16 bits
Compression mode : Lossy
Delay relative to video : 18 ms
Stream size : 109 MiB (9%)
Title : Spanish
Language : Spanish
Service kind : Complete Main
Default : Yes
Forced : No

Audio #2
ID : 3
Format : AC-3
Format/Info : Audio Coding 3
Commercial name : Dolby Digital
Codec ID : A_AC3
Duration : 1 h 19 min
Bit rate mode : Constant
Bit rate : 192 kb/s
Channel(s) : 2 channels
Channel layout : L R
Sampling rate : 48.0 kHz
Frame rate : 31.250 FPS (1536 SPF)
Bit depth : 16 bits
Compression mode : Lossy
Delay relative to video : 10 ms
Stream size : 109 MiB (9%)
Title : V.O.
Language : Multiple languages
Service kind : Complete Main
Default : No
Forced : No



[ Add all 2 links to your ed2k client ]
30 de Febrero, programa monografico y kontrainformativo que trata una infinidad de temas siempre desde una optica revolucionaria y con ironia y humor

Irola Irratia 107.5fm es un radio libre asamblearia y autogestionada que okupa las ondas desde 1987



Volver a Largometrajes de ficción

Antes de empezar, un par de cosas:

Puedes usar las redes sociales para enterarte de las novedades o ayudarnos a difundir lo que encuentres.
Si ahora no te apetece, puedes hacerlo cuando quieras con los botones de arriba.

Facebook Twitter
Telegram YouTube

Sí, usamos cookies. Puedes ver para qué las usamos y cómo quitarlas o simplemente puedes aceptarlo.