RebeldeMule

El Clan (Pablo Trapero, 2015)

Drama, comedia, suspense; a veces a caballo entre la ficción y la realidad, pero siempre cine para pensar con sentido crítico lo social.
El Clan
Pablo Trapero (Argentina, España; 2015) [110 min]

Portada
IMDb
(Filmaffinity)


Sinopsis:

    [fuente] La historia se basa en el caso policial del Clan Puccio, que conmocionó a la sociedad argentina a principios de los 80. Tras la aparente normalidad de los Puccio se oculta un siniestro clan dedicado al secuestro y al asesinato. Arquímedes, el patriarca, lidera y planifica las operaciones. Alejandro, el hijo mayor, estrella de un club de rugby, se sirve de su popularidad para no levantar sospechas. Los demás miembros de la familia son cómplices en mayor o menor grado de los crímenes del clan y viven de los beneficios obtenidos de los rescates que pagan los familiares de los secuestrados.

Comentario personal:

    Si bien para lxs que no conozcan la historia argentina reciente esta película puede parecer un thriller más, hay que entenderla en el contexto de la época post dictadura. El proceso de transición del país, copiado en términos generales del proceso de transición española, dejó tantos cabos sueltos que la historia de Arquímedes Puccio no es menos diferente que la de los sicarios italianos, portugueses o argentinos que vinieron a España a ganarse la vida como mercenarios de los grupos parapoliciales. El Clan Puccio fue el letargo de la mano de obra desocupada que quedó tras la disolución de los famosos "grupos de tareas" de la última dictadura argentina, que con conocimientos en el uso de armas y de los operativos comando, trató de hacer fortuna con los secuestros extorsivos.

Ficha técnica


Reparto:


Idioma original: Castellano.





Secuencias






DVDRip VO - AVI
detalles técnicos u otros: mostrar contenido
General
Unique ID : 194750796917017607436076105145901239868 (0x9283A39F2CF0EB0AB4EA8F1BC7B5CE3C)
Complete name : El Clan 2015 SPANISH 1080p BluRay x264 AC3-JYK.mkv
Format : Matroska
Format version : Version 2
File size : 2.65 GiB
Duration : 1 h 48 min
Overall bit rate : 3 491 kb/s
Encoded date : UTC 2016-05-29 23:24:25
Writing application : mkvmerge v8.5.2 ('Crosses') 32bit
Writing library : libebml v1.3.3 + libmatroska v1.4.4

Video
ID : 1
Format : AVC
Format/Info : Advanced Video Codec
Format profile : High@L4.1
Format settings : CABAC / 5 Ref Frames
Format settings, CABAC : Yes
Format settings, RefFrames : 5 frames
Codec ID : V_MPEG4/ISO/AVC
Duration : 1 h 48 min
Bit rate : 2 850 kb/s
Width : 1 920 pixels
Height : 800 pixels
Display aspect ratio : 2.40:1
Frame rate mode : Constant
Frame rate : 23.976 (24000/1001) FPS
Color space : YUV
Chroma subsampling : 4:2:0
Bit depth : 8 bits
Scan type : Progressive
Bits/(Pixel*Frame) : 0.077
Stream size : 2.16 GiB (82%)
Writing library : x264 core 148 r2638 7599210
Encoding settings : cabac=1 / ref=5 / deblock=1:-1:-1 / analyse=0x3:0x133 / me=umh / subme=7 / psy=1 / psy_rd=1.00:0.00 / mixed_ref=1 / me_range=30 / chroma_me=1 / trellis=1 / 8x8dct=1 / cqm=2 / deadzone=21,11 / fast_pskip=0 / chroma_qp_offset=-2 / threads=12 / lookahead_threads=3 / sliced_threads=0 / slices=4 / nr=0 / decimate=1 / interlaced=0 / bluray_compat=0 / constrained_intra=0 / bframes=5 / b_pyramid=2 / b_adapt=2 / b_bias=0 / direct=3 / weightb=1 / open_gop=0 / weightp=2 / keyint=240 / keyint_min=23 / scenecut=40 / intra_refresh=0 / rc_lookahead=50 / rc=2pass / mbtree=1 / bitrate=2850 / ratetol=1.0 / qcomp=0.60 / qpmin=1 / qpmax=69 / qpstep=4 / cplxblur=20.0 / qblur=0.5 / vbv_maxrate=62500 / vbv_bufsize=78125 / nal_hrd=none / filler=0 / ip_ratio=1.40 / aq=1:1.00
Language : English
Default : Yes
Forced : No

Audio
ID : 2
Format : AC-3
Format/Info : Audio Coding 3
Commercial name : Dolby Digital
Codec ID : A_AC3
Duration : 1 h 48 min
Bit rate mode : Constant
Bit rate : 640 kb/s
Channel(s) : 6 channels
Channel layout : L R C LFE Ls Rs
Sampling rate : 48.0 kHz
Frame rate : 31.250 FPS (1536 SPF)
Bit depth : 16 bits
Compression mode : Lossy
Stream size : 497 MiB (18%)
Language : Spanish
Service kind : Complete Main
Default : Yes
Forced : No

Menu
00:00:00.000 : en:00:00:00.000
00:08:44.190 : en:00:08:44.190
00:17:19.080 : en:00:17:19.080
00:28:18.864 : en:00:28:18.864
00:35:41.264 : en:00:35:41.264
00:42:00.351 : en:00:42:00.351
00:48:39.250 : en:00:48:39.250
00:56:42.524 : en:00:56:42.524
01:05:11.991 : en:01:05:11.991
01:14:13.324 : en:01:14:13.324
01:19:05.366 : en:01:19:05.366
01:26:57.129 : en:01:26:57.129
01:38:39.539 : en:01:38:39.539
01:42:01.532 : en:01:42:01.532

---"Si utilizas al enemigo para derrotar al enemigo, serás poderoso en cualquier lugar a donde vayas"--- Sun Tzu

Volver a Largometrajes de ficción

Antes de empezar, un par de cosas:

Puedes usar las redes sociales para enterarte de las novedades o ayudarnos a difundir lo que encuentres.
Si ahora no te apetece, puedes hacerlo cuando quieras con los botones de arriba.

Facebook Twitter
Telegram YouTube

Sí, usamos cookies. Puedes ver para qué las usamos y cómo quitarlas o simplemente puedes aceptarlo.