RebeldeMule

Eva no duerme (Pablo Agüero, 2015)

Drama, comedia, suspense; a veces a caballo entre la ficción y la realidad, pero siempre cine para pensar con sentido crítico lo social.
Eva no duerme
Pablo Agüero (Argentina, España, Francia; 2015) [85 min]

Portada
IMDb
(Filmaffinity)


Sinopsis:

    [fuente] Relata la odisea del cadáver embalsamado de la política argentina Eva Perón por toda Europa en los años cincuenta desde su fallecimiento hasta su entierro en Argentina 25 años después. Año 1952, Eva Perón, la mujer más amada y odiada de la Argentina, muere a los 33 años de edad. Un anatomista experto la embalsama sin quitarle la más mínima partícula de piel, como si apenas durmiera. Pero las Fuerzas Armadas toman el poder, y se proponen borrar completamente a Evita de la memoria popular. Su cuerpo desaparece durante 25 años. Durante ese cuarto de siglo, Evita, aun muerta y desaparecida, es la figura política más poderosa del país.

Ficha técnica

    Guión: Pablo Agüero.
    Música: Valentín Portrón.
    Fotografía: Ivan Gierasinchuk.
    Productora: Coproducción Argentina-España-México-Alemania; JBA Productions / Haddock Films / Tornasol Films / Canana / Rohfilm.

Reparto:


Idioma original: Castellano.





Secuencias





DVDRip VO - AVI
detalles técnicos u otros: mostrar contenido
General
Complete name : Eva no duerme (DVDRip) (EliteTorrent.net).avi
Format : AVI
Format/Info : Audio Video Interleave
File size : 1.18 GiB
Duration : 1 h 25 min
Overall bit rate : 1 967 kb/s
Writing application : VirtualDubMod 1.5.10.2 (build 2540/release)
Writing library : VirtualDubMod build 2540/release

Video
ID : 0
Format : MPEG-4 Visual
Format profile : Advanced Simple@L5
Format settings : BVOP2
Format settings, BVOP : 2
Format settings, QPel : No
Format settings, GMC : No warppoints
Format settings, Matrix : Default (MPEG)
Muxing mode : Packed bitstream
Codec ID : XVID
Codec ID/Hint : XviD
Duration : 1 h 25 min
Bit rate : 1 509 kb/s
Width : 720 pixels
Height : 384 pixels
Display aspect ratio : 1.85:1
Frame rate : 23.976 (24000/1001) FPS
Original frame rate : 23.976 (23976/1000) FPS
Color space : YUV
Chroma subsampling : 4:2:0
Bit depth : 8 bits
Scan type : Progressive
Compression mode : Lossy
Bits/(Pixel*Frame) : 0.228
Stream size : 927 MiB (77%)
Writing library : XviD 64

Audio
ID : 1
Format : AC-3
Format/Info : Audio Coding 3
Commercial name : Dolby Digital
Codec ID : 2000
Duration : 1 h 25 min
Bit rate mode : Constant
Bit rate : 448 kb/s
Channel(s) : 6 channels
Channel layout : L R C LFE Ls Rs
Sampling rate : 48.0 kHz
Frame rate : 31.250 FPS (1536 SPF)
Bit depth : 16 bits
Compression mode : Lossy
Stream size : 275 MiB (23%)
Alignment : Split accross interleaves
Interleave, duration : 42 ms (1.00 video frame)
Interleave, preload duration : 500 ms
Service kind : Complete Main

---"Si utilizas al enemigo para derrotar al enemigo, serás poderoso en cualquier lugar a donde vayas"--- Sun Tzu

[Editado por el comité de RBM para incluir el enlace en el primer mensaje. Muchas gracias, compañero Red Boy.]
---"Si utilizas al enemigo para derrotar al enemigo, serás poderoso en cualquier lugar a donde vayas"--- Sun Tzu


Volver a Largometrajes de ficción

Antes de empezar, un par de cosas:

Puedes usar las redes sociales para enterarte de las novedades o ayudarnos a difundir lo que encuentres.
Si ahora no te apetece, puedes hacerlo cuando quieras con los botones de arriba.

Facebook Twitter
Telegram YouTube

Sí, usamos cookies. Puedes ver para qué las usamos y cómo quitarlas o simplemente puedes aceptarlo.