RebeldeMule

Voces distantes (Terence Davies, 1988)

Drama, comedia, suspense; a veces a caballo entre la ficción y la realidad, pero siempre cine para pensar con sentido crítico lo social.
Voces distantes
Distant Voices, Still Lives
Terence Davies (Reino Unido, 1988) [85 min]

Portada
IMDb
(Filmaffinity)


Sinopsis:

    La vida de una familia de clase trabajadora en Liverpool. La boda de la hija mayor y el bautizo del bebé de la hija menor estimulan los recuerdos de la familia, incluyendo los años de la guerra, las palizas que la madre recibe del esposo, el temor de los hijos a que la madre caiga por la ventana mientras la limpia... El hijo encuentra esposa, y llora a las afueras del local donde se celebra su boda.

Ficha técnica

    Guión: Terence Davies.
    Música: Ella Fitzgerald, George Gershwin, Jessye Norman.
    Fotografía: Patrick Duval.
    Productora: British Film Institute / Film Four International / Avenue Pictures.

Reparto:

    Freda Dowie, Pete Postlethwaite, Angela Walsh, Dean Williams, Lorraine Ashbourne, Drew Schofield.

Premios:

    1988: Seminci: Espiga de Oro: Mejor película.
    1988: Festival de Toronto: Premio FIPRESCI.
    1988: Festival de Cannes: FIPRESCI.
    1988: Festival de Locarno: Leopardo de Oro (mejor película).




DVDRip Dual+S - MKV (X264/AVC+AC3 2.0)
detalles técnicos u otros: mostrar contenido
General
Unique ID : 225291258718004992783629598243872514682 (0xA97D84A4A692019EADA8E48BB817227A)
Complete name : Distant Voices, Still Present.DVDRip.Dual.mkv
Format : Matroska
Format version : Version 2
File size : 1.51 GiB
Duration : 1h 20mn
Overall bit rate : 2 679 Kbps
Encoded date : UTC 2012-06-18 04:18:26
Writing application : mkvmerge v5.6.0 ('Kenya Kane') built on May 27 2012 16:44:04
Writing library : libebml v1.2.3 + libmatroska v1.3.0

Video
ID : 1
Format : AVC
Format/Info : Advanced Video Codec
Format profile : High@L4.1
Format settings, CABAC : Yes
Format settings, ReFrames : 5 frames
Codec ID : V_MPEG4/ISO/AVC
Duration : 1h 20mn
Bit rate : 2 292 Kbps
Width : 720 pixels
Height : 400 pixels
Display aspect ratio : 16:9
Frame rate : 25.000 fps
Color space : YUV
Chroma subsampling : 4:2:0
Bit depth : 8 bits
Scan type : Progressive
Bits/(Pixel*Frame) : 0.318
Stream size : 1.26 GiB (84%)
Writing library : x264 core 125 r2200 999b753
Encoding settings : cabac=1 / ref=5 / deblock=1:-1:-1 / analyse=0x3:0x113 / me=umh / subme=8 / psy=1 / psy_rd=1.00:0.15 / mixed_ref=1 / me_range=16 / chroma_me=1 / trellis=1 / 8x8dct=1 / cqm=0 / deadzone=21,11 / fast_pskip=1 / chroma_qp_offset=-3 / threads=6 / lookahead_threads=1 / sliced_threads=0 / nr=0 / decimate=1 / interlaced=0 / bluray_compat=0 / constrained_intra=0 / bframes=3 / b_pyramid=2 / b_adapt=2 / b_bias=0 / direct=1 / weightb=1 / open_gop=0 / weightp=2 / keyint=250 / keyint_min=25 / scenecut=40 / intra_refresh=0 / rc_lookahead=50 / rc=2pass / mbtree=1 / bitrate=2292 / ratetol=1.0 / qcomp=0.60 / qpmin=0 / qpmax=69 / qpstep=4 / cplxblur=20.0 / qblur=0.5 / ip_ratio=1.40 / aq=1:1.00
Default : Yes
Forced : No

Audio #1
ID : 2
Format : AC-3
Format/Info : Audio Coding 3
Mode extension : CM (complete main)
Format settings, Endianness : Big
Codec ID : A_AC3
Duration : 1h 20mn
Bit rate mode : Constant
Bit rate : 192 Kbps
Channel(s) : 2 channels
Channel positions : Front: L R
Sampling rate : 48.0 KHz
Bit depth : 16 bits
Compression mode : Lossy
Stream size : 111 MiB (7%)
Language : English
Default : Yes
Forced : No

Audio #2
ID : 3
Format : AC-3
Format/Info : Audio Coding 3
Format profile : Dolby Digital
Mode extension : CM (complete main)
Format settings, Endianness : Big
Codec ID : A_AC3
Duration : 1h 20mn
Bit rate mode : Constant
Bit rate : 192 Kbps
Channel(s) : 2 channels
Channel positions : Front: L R
Sampling rate : 48.0 KHz
Bit depth : 16 bits
Compression mode : Lossy
Delay relative to video : 24ms
Stream size : 111 MiB (7%)
Language : Spanish
Default : No
Forced : No

Text #1
ID : 4
Format : VobSub
Muxing mode : zlib
Codec ID : S_VOBSUB
Codec ID/Info : The same subtitle format used on DVDs
Language : English
Default : No
Forced : No

Text #2
ID : 5
Format : UTF-8
Codec ID : S_TEXT/UTF8
Codec ID/Info : UTF-8 Plain Text
Language : Spanish
Default : No
Forced : No





DVDRip VO+S - AVI (XviD+MP3)





DVDRip Dual+S - AVI (XviD+MP3) [Dual VO/Com (en Inglés)]
detalles técnicos u otros: mostrar contenido
AVI File Details
========================================
Name.........: The Long Day Closes [Terence Davies, 1992] DVDRip (+Commentary).avi
Filesize.....: 1,052 MB (or 1,077,740 KB or 1,103,605,760 bytes)
Runtime......: 01:21:42 (122,544 fr)
Video Codec..: XviD
Video Bitrate: 1504 kb/s
Audio Codec..: 0x0055(MP3) ID'd as MPEG-1 Layer 3
Audio Bitrate: 192 kb/s (96/ch, stereo) CBR
Frame Size...: 720x376 (1.91:1) [~23:12]





Relacionado:

    Portada
    Monografías. (Reino Unido)
    Guionista, cineasta y novelista. Como cineasta, Davies se caracteriza por temas recurrentes como la resistencia emocional (y a veces física), la influencia de la memoria en la vida cotidiana y los posibles efectos paralizantes de la religiosidad...


[ Add all 3 links to your ed2k client ]

Volver a Largometrajes de ficción

Antes de empezar, un par de cosas:

Puedes usar las redes sociales para enterarte de las novedades o ayudarnos a difundir lo que encuentres.
Si ahora no te apetece, puedes hacerlo cuando quieras con los botones de arriba.

Facebook Twitter
Telegram YouTube

Sí, usamos cookies. Puedes ver para qué las usamos y cómo quitarlas o simplemente puedes aceptarlo.