RebeldeMule

Diario de una camarera (Luis Buñuel, 1964)

Drama, comedia, suspense; a veces a caballo entre la ficción y la realidad, pero siempre cine para pensar con sentido crítico lo social.
Diario de una camarera
Le journal d'une femme de chambre
Luis Buñuel (Francia, Italia, 1964) [B/N, 97 min]

Portada
IMDb
(Wikipedia | Filmaffinity)


Sinopsis:

    La joven Célestine llega al hogar de los Monteil en Normandía y se emplea como recamarera. Como su matrimonio tiene problemas, el señor Monteil propone a Célestine que sea su amante pero ella lo rechaza. La joven se enamora del guardabosques Joseph antes de darse cuenta que él esconde un terrible secreto.

Ficha técnica

    Guión: Luis Buñuel, Jean-Claude Carrière (Novela: Octave Mirbeau).
    Fotografía: Roger Fellous.
    Productora: Coproducción Francia-Italia.

Reparto:

    Jeanne Moreau, Michel Piccoli, Georges Géret, Françoise Lugagne, Daniel Ivertiel, Jean Ozenne, Gilberte Géniat.




¿?Rip VO+S - AVI





DVDRip VO+S - AVI (XviD+AC3 2.0)
detalles técnicos u otros: mostrar contenido
File Size (in bytes)- - - - - - - - - - - - - - -: 1,468,502,016 bytes 1.36GB
Runtime - - - - - - - - - - - - - - - - - - - - -: 1:38:08

Video Codec - - - - - - - - - - - - - - - - - - -: XviD ISO MPEG-4
Frame Size- - - - - - - - - - - - - - - - - - - -: 720x320 (AR: 2.250)
FPS - - - - - - - - - - - - - - - - - - - - - - -: 23.976
Video Bitrate - - - - - - - - - - - - - - - - - -: 1860 kb/s
Bits per Pixel- - - - - - - - - - - - - - - - - -: 0.337 bpp
B-VOP, N-VOP, QPel, GMC - - - - - - - - - - - - -: [B-VOP], [], [], []

Audio Codec - - - - - - - - - - - - - - - - - - -: 0x2000 (Dolby AC3) AC3
Sample Rate - - - - - - - - - - - - - - - - - - -: 48000 Hz
Audio Bitrate - - - - - - - - - - - - - - - - - -: 128 kb/s [1 channel(s)] CBR
No. of audio streams- - - - - - - - - - - - - - -: 1





DVDRip Dual - MKV (X264/AVC+AC3 2.0) [DUAL Alemán/Francés]
detalles técnicos u otros: mostrar contenido
Complete name : Le.journal.d'une.femme.de.chambre.1964.Luis.Buñuel.DVD.x264.Dual.subs.mkv
Format : Matroska
File size : 1.36 GiB
Duration : 1h 38mn
Overall bit rate : 1 989 Kbps
Movie name : Tagebuch einer Kammerzofe - Le journal d'une femme de chambre (1964)
Encoded date : UTC 2010-07-16 15:02:57
Writing application : mkvmerge v4.1.1 ('Bouncin' Back') gebaut am Jul 3 2010 22:54:08

Video
ID : 1
Format : AVC
Format profile : High@L3.0
Duration : 1h 38mn
Bit rate : 1 780 Kbps
Width : 718 pixels
Height : 364 pixels
Display aspect ratio : 2.35:1
Original display aspect ratio : 2.35:1
Frame rate mode : Variable
Frame rate : 23.976 fps
Scan type : Progressive
Bits/(Pixel*Frame) : 0.284
Stream size : 1.19 GiB (88%)
Writing library : x264 core 88

Audio #1
Codec ID/Hint : MP3
Duration : 1h 38mn
Bit rate mode : Constant
Bit rate : 80.0 Kbps
Channel(s) : 1 channel
Sampling rate : 48.0 KHz
Stream size : 56.1 MiB (4%)
Language : German

Audio #2
Format : AC-3
Duration : 1h 38mn
Bit rate mode : Constant
Bit rate : 128 Kbps
Channel(s) : 1 channel
Channel positions : Front: C
Sampling rate : 48.0 KHz
Bit depth : 16 bits
Stream size : 89.8 MiB (6%)
Language : French

Muxed in srt subs : English, Turkish, Spanish

Menu
00:00:00.000 : en:Chapter 1
00:12:11.430 : en:Chapter 2
00:26:08.350 : en:Chapter 3
00:40:18.566 : en:Chapter 4
00:50:14.127 : en:Chapter 5
00:59:39.943 : en:Chapter 6
01:11:44.300 : en:Chapter 7
01:26:05.443 : en:Chapter 8
01:38:06.580 : en:Chapter 9





Relacionado

    Portada
    Monografías. (España, 1900-1983)
    Luis Buñuel permanece fiel a lo largo de toda su vida a los presupuestos esenciales del surrealismo, cuya finalidad no es la obra de arte, sino la instauración de una nueva actitud para cambiar al hombre y al mundo...


[ Add all 3 links to your ed2k client ]

Volver a Largometrajes de ficción

Antes de empezar, un par de cosas:

Puedes usar las redes sociales para enterarte de las novedades o ayudarnos a difundir lo que encuentres.
Si ahora no te apetece, puedes hacerlo cuando quieras con los botones de arriba.

Facebook Twitter
Telegram YouTube

Sí, usamos cookies. Puedes ver para qué las usamos y cómo quitarlas o simplemente puedes aceptarlo.