RebeldeMule

La strada (Federico Fellini, 1954)

Drama, comedia, suspense; a veces a caballo entre la ficción y la realidad, pero siempre cine para pensar con sentido crítico lo social.
La Strada
Federico Fellini (Italia, 1954) [B/N, 103 min]

Portada Portada
IMDb
(Wikipedia | Filmaffinity)


Sinopsis:

    Recorriendo el mundo con su espectáculo, el vigoroso Zampanò conoce por casualidad a una pobre y numerosa familia campesina, que le vende por poco dinero a la graciosa Gelsomina. Violento y posesivo, Zampanò obliga a la chica a acompañarlo en sus actuaciones, en las cuales la ridiculiza sin escrúpulos mientras él parte cadenas ante un público incrédulo. Gelsomina, tímida e ingenua, no reacciona a los malos tratos de este hombre grosero y brutal.

    En esta película, que le da renombre a Fellini, los personajes parecen más máscaras que reales. El personaje de Gelsomina es una mezcla de cara de "clown", Harpo Max, Chaplin y una muñeca.

Ficha técnica

    Guión: Tullio Pinelli, Federico Fellini.
    Música: Nino Rota.
    Fotografía: Otello Martelli.
    Productora: Ponti de Laurentiis.

Reparto:

    Anthony Quinn, Giulietta Masina, Richard Basehart, Aldo Silvani, Marcella Rovere, Livia Venturini.

Premios:

    1956: Oscar: Mejor película de habla no inglesa. 2 nominaciones.
    1956: Círculo de Críticos de Nueva York: Mejor película extranjera.
    1955: BAFTA: Nominada a mejor película y actriz extranjera (Giulietta Masina).
    1954: Venecia: León de Plata.

Idioma original: Italiano.





DVDRip VO+S - MKV (X264/AVC+AC3 2.0)
detalles técnicos u otros: mostrar contenido
General
Unique ID : 227873938300396797999211730959573990943 (0xAB6EEC93E7210EB69BD3B3D554B83E1F)
Complete name : La.Strada.1954.Criterion.DVDRip.x264.mkv
Format : Matroska
Format version : Version 1
File size : 1.46 GiB
Duration : 1h 48mn
Overall bit rate : 1 920 Kbps
Encoded date : UTC 2008-07-13 15:20:12
Writing application : mkvmerge v2.2.0 ('Turn It On Again') built on Mar 4 2008 12:58:26
Writing library : libebml v0.7.7 + libmatroska v0.8.1

Video
ID : 1
Format : AVC
Format/Info : Advanced Video Codec
Format profile : High@L4.1
Format settings, CABAC : Yes
Format settings, ReFrames : 16 frames
Codec ID : V_MPEG4/ISO/AVC
Duration : 1h 48mn
Bit rate : 1 725 Kbps
Width : 704 pixels
Height : 480 pixels
Display aspect ratio : 4:3
Original display aspect ratio : 3:2
Frame rate mode : Constant
Frame rate : 23.976 fps
Standard : NTSC
Color space : YUV
Chroma subsampling : 4:2:0
Bit depth : 8 bits
Scan type : Progressive
Bits/(Pixel*Frame) : 0.213
Stream size : 1.28 GiB (88%)
Title : La Strada (1954)
Writing library : x264 core 60 r901M 58d7d06
Encoding settings : cabac=1 / ref=16 / deblock=1:-1:-1 / analyse=0x3:0x113 / me=tesa / subme=7 / rdcmp=psy / brdo=1 / mixed_ref=1 / me_range=20 / chroma_me=1 / trellis=2 / 8x8dct=1 / cqm=0 / deadzone=21,11 / chroma_qp_offset=0 / threads=3 / nr=0 / decimate=0 / mbaff=0 / bframes=3 / b_pyramid=1 / b_adapt=1 / b_bias=0 / direct=3 / wpredb=1 / bime=1 / keyint=240 / keyint_min=24 / scenecut=40(pre) / rc=2pass / bitrate=1725 / ratetol=1.0 / rceq='blurCplx^(1-qComp)' / qcomp=1.00 / qpmin=10 / qpmax=51 / qpstep=4 / cplxblur=20.0 / qblur=0.5 / ip_ratio=1.40 / pb_ratio=1.30 / aq=2:1.10
Default : Yes
Forced : No

Audio
ID : 2
Format : AC-3
Format/Info : Audio Coding 3
Mode extension : CM (complete main)
Format settings, Endianness : Big
Codec ID : A_AC3
Duration : 1h 48mn
Bit rate mode : Constant
Bit rate : 192 Kbps
Channel(s) : 1 channel
Channel positions : Front: C
Sampling rate : 48.0 KHz
Bit depth : 16 bits
Compression mode : Lossy
Stream size : 149 MiB (10%)
Title : Italian Audio (AC3, 1 channel)
Language : Italian
Default : Yes
Forced : No

Text
ID : 3
Format : UTF-8
Codec ID : S_TEXT/UTF8
Codec ID/Info : UTF-8 Plain Text
Title : English Subs (SRT)
Language : English
Default : Yes
Forced : No





DVDRip Dual+S - AVI (XviD+AC3 2.0)





:str: Reproducción:





Relacionado:



[ Add all 3 links to your ed2k client ]

Volver a Largometrajes de ficción

Antes de empezar, un par de cosas:

Puedes usar las redes sociales para enterarte de las novedades o ayudarnos a difundir lo que encuentres.
Si ahora no te apetece, puedes hacerlo cuando quieras con los botones de arriba.

Facebook Twitter
Telegram YouTube

Sí, usamos cookies. Puedes ver para qué las usamos y cómo quitarlas o simplemente puedes aceptarlo.