RebeldeMule

El señor de las moscas (Harry Hook, 1990)

Drama, comedia, suspense; a veces a caballo entre la ficción y la realidad, pero siempre cine para pensar con sentido crítico lo social.
El señor de las moscas
Lord of the Flies
Harry Hook (EE.UU. de América, 1990) 90 min


IMDb
(Wikipedia | Filmaffinity)


Sinopsis: Con motivo de una guerra, los niños de una región inglesa son evacuados en avión. Uno de los aparatos sufre una avería y cae al mar, cerca de una isla desierta. Los niños supervivientes llegan a la isla, llevando consigo al piloto que está malherido. En tal circunstancia, no tendrán más remedio que organizarse si quieren sobrevivir... Adaptación de la novela homónima del premio Nobel de literatura William Golding.

Ficha técnica
Guión: Sara Schiff; basado en la novela de William Golding.
Música: Philippe Sarde.
Fotografía: Martin Fuhrer.
Productora: Castle Rock Entertainment.

Reparto: Balthazar Getty, Chris Furrh, Danuel Pipoly, James Badge Dale, Andrew Taft, Edward Taft, Gary Rule.

Idioma original: Inglés.





DVDRip VE - AVI (XviD+MP3) - [702 Mb]




DVDRip Dual+S - AVI (XviD+AC3 2.0) - [1.37 Mb]




DVDRip VOS - AVI (XviD+AC3 2.0) - [1.18 Gb]
detalles técnicos u otros: mostrar contenido
Complete name : Lord of the FliesLord of the Flies.avi
Format : AVI
Format/Info : Audio Video Interleave
File size : 1.18 GiB
Duration : 1h 26mn
Overall bit rate : 1 945 Kbps

Video:

Format : MPEG-4 Visual
Format profile : Simple@L3
Format settings, BVOP : No
Format settings, QPel : No
Format settings, GMC : No warppoints
Format settings, Matrix : Default (H.263)
Codec ID : XVID
Codec ID/Hint : XviD
Duration : 1h 26mn
Bit rate : 1 742 Kbps
Width : 652 pixels
Height : 352 pixels
Display aspect ratio : 1.852
Frame rate : 25.000 fps
Color space : YUV
Chroma subsampling : 4:2:0
Bit depth : 8 bits
Scan type : Progressive
Compression mode : Lossy
Bits/(Pixel*Frame) : 0.304
Stream size : 1.05 GiB (90%)
Writing library : XviD 1.1.2 (UTC 2006-11-01)

Audio:

Format : AC-3
Format/Info : Audio Coding 3
Mode extension : CM (complete main)
Codec ID : 2000
Duration : 1h 26mn
Bit rate mode : Constant
Bit rate : 192 Kbps
Channel(s) : 2 channels
Channel positions : Front: L R
Sampling rate : 48.0 KHz
Bit depth : 16 bits
Compression mode : Lossy
Stream size : 119 MiB (10%)
Alignment : Aligned on interleaves



[ Add all 3 links to your ed2k client ]

Volver a Largometrajes de ficción

Antes de empezar, un par de cosas:

Puedes usar las redes sociales para enterarte de las novedades o ayudarnos a difundir lo que encuentres.
Si ahora no te apetece, puedes hacerlo cuando quieras con los botones de arriba.

Facebook Twitter
Telegram YouTube

Sí, usamos cookies. Puedes ver para qué las usamos y cómo quitarlas o simplemente puedes aceptarlo.