RebeldeMule

Un año con trece lunas (Rainer Werner Fassbinder, 1978)

Drama, comedia, suspense; a veces a caballo entre la ficción y la realidad, pero siempre cine para pensar con sentido crítico lo social.
Un año con trece lunas
In einem Jahr mit 13 Monden
Rainer Werner Fassbinder (RFA, 1978) [Color, 124 m.].

Portada
IMDb
(Wikipedia | Filmaffinity)


Sinopsis:

    [fuente] Se dice que en el Año de la Luna, que tiene lugar cada siete años, las personas más sensibles sufren fuertes depresiones. Si el Año de la Luna resulta ser a la vez un año con trece lunas nuevas, pueden sufrir incluso grandes catástrofes personales. "Un año con trece lunas" narra los últimos días de la trágica vida de Elvira, un transexual (llamado antes Erwin, casado y con hijos), que se ha transformado en mujer por el amor de un hombre. Cuando su amante la rechaza, incapaz de soportar la soledad, intenta volver al pasado, buscando cariño, comprensión o una razón para seguir viviendo.

En El Multicine se escribió:Afectado por el reciente suicido de su amante Armin Meier, Fassbinder aborda casi todas la tareas técnicas posibles en esta película, que será recordada como una de sus obras más intimistas y personales.

M. Torreiro, en El País, escribió:Uno de los títulos más provocadores, chocantes e inteligentes de la apasionada filmografía de Fassbinder.

E. Rodríguez Marchante, en Cinemanía, escribió:Conduce al espectador por su viacrucis moral, sentimental y físico... Y en ese viaje, Fassbinder hace algunas paradas tremendas, empapadas de truculencia y dolor. (...) Puntuación: *** (sobre 5).

En SensaCine se escribió:Asistimos a los últimos años en la vida de Elvira (anteriormente conocida como Erwin) Weisshaupt, un transexual que vive en Alemania durante la década de los 70. Años antes, Erwin le confesó a su compañero de trabajo Anton que le amaba. Su respuesta inmediata fue lamentarse por el hecho de que Erwin no fuera una mujer, por lo que él hizo de su vida una cruzada enfocada a un único objetivo: convertirse en una. Dejar de ser Erwin para transformarse en Elvira. Cuando, pese a todo, sufre el rechazo inflexible de Anton, al transexual Elvira sólo le queda refugiarse en el pasado. Intenta encontrar en sus recuerdos alguna fuente de amor que le de energías y fuerzas suficientes para seguir adelante, conociendo a otros hombres y confiando en que, si vuelve a acercarse a Anton, esta vez no le rechazará.

AMG SYNOPSIS: This Rainer Werner Fassbinder drama centers around the lonely quest for love of Elvira Weishaupt, a man who became a woman to please his/her man. Just prior to that, Elivira had been jilted by her previous live-in partner, a man. She does the operation to win the heart of another, Anton. Unfortunately, the sex-change operation does not change the intended's mind; Anton is simply not interested. -- Sandra Brennan

Rainer Werner Fassbinder escribió:Un año con trece lunas describe los encuentros de una persona durante los últimos cinco días de su vida, tratando de descubrir a través de tales encuentros si la decisión de esa persona de no seguir viviendo después del último día, el quinto, debe ser rechazada, siquiera comprendida o incluso aceptada por los demás. La acción transcurre en Frankfurt, una ciudad cuya estructura especial da lugar a biografías como esta, o al menos hace que no parezcan inusuales. Frankfurt no es un paraíso de serena mediocridad ni una ciudad pacífica, agradable y plácida; es, por el contrario, una ciudad donde las contradicciones generales de la sociedad aparecen en cada esquina, incesantes


Ficha técnica

    Otros títulos internacionales: In a Year with 13 Moons / In a Year of Thirteen Moons / L'année des treize lunes / Un anno con tredici lune.
    Guión: Rainer Werner Fassbinder.
    Fotografía: Rainer Werner Fassbinder (Eastmancolor).
    Montaje: Rainer Werner Fassbinder, Juliane Lorenz.
    Música: Peer Raben.
    Temas: Gustav Mahler (títulos de crédito), Roxy Music ("A Song for Europe"), Connie Francis ("Schöner fremder Mann"), Suicide ("Frankie Teardrop").
    Producción: Rainer Werner Fassbinder
    Productora: Filmverlag der Autoren / Pro-ject Filmproduktion / Tango-Film.

Reparto:

  • Volker Spengler (Erwin / Elvira Weishaupt).
  • Ingrid Caven (Die rote Zora).
  • Gottfried John (Anton Saitz).
  • Elisabeth Trissenaar (Irene Weishaupt).
  • Eva Mattes (Marie-Ann Weishaupt).
  • Günther Kaufmann (J. Smolik, Chauffeur).
  • Lilo Pempeit (Schwester Gudrun).
  • Isolde Barth (Sybille).
  • Karl Scheydt (Christoph Hacker).
  • Walter Bockmayer (Seelenfrieda).

Género:

    Drama psicológico, Melodrama / Vanguardia/Experimental, Transexualidad, Alienación.




DVDRip VO+S - MKV
detalles técnicos u otros: mostrar contenido
Datos técnicos:
** DVDRip VO+SI/SCh / AC3 1.0 / 712x572 --> 1013x572 (16:9 / 1.771) / 01:59:19 (119 m.) / 25 fps **

Código: Seleccionar todo
General
Complete name                            : In.einem.Jahr.mit.13.Monden.1978.D9.MiniSD-TLF.mkv
Format                                   : Matroska
Format version                           : Version 4 / Version 2
File size                                : 1.45 GiB
Duration                                 : 1h 59mn
Overall bit rate                         : 1 738 Kbps
Movie name                               : BY zac-fly @TLF
Encoded date                             : UTC 2013-04-20 08:20:58
Writing application                      : mkvmerge v6.1.0 ('Old Devil') built on Mar  2 2013 14:32:37
Writing library                          : libebml v1.3.0 + libmatroska v1.4.0

Video
ID                                       : 1
Format                                   : AVC
Format/Info                              : Advanced Video Codec
Format profile                           : High@L4.0
Format settings, CABAC                   : Yes
Format settings, ReFrames                : 16 frames
Codec ID                                 : V_MPEG4/ISO/AVC
Duration                                 : 1h 59mn
Bit rate                                 : 1 447 Kbps
Width                                    : 712 pixels
Height                                   : 572 pixels
Display aspect ratio                     : 16:9
Original display aspect ratio            : 16:9
Frame rate mode                          : Constant
Frame rate                               : 25.000 fps
Color space                              : YUV
Chroma subsampling                       : 4:2:0
Bit depth                                : 8 bits
Scan type                                : Progressive
Bits/(Pixel*Frame)                       : 0.142
Stream size                              : 1.21 GiB (83%)
Title                                    : source: R2-FRA-DVD-StudioCanal
Writing library                          : x264 core 129 r2245+704+36 8e61944 tMod+MixAQ [8-bit@all X86]
Encoding settings                        : cabac=1 / ref=16 / deblock=1:-3:-3 / analyse=0x3:0x113 / me=umh / subme=10 / psy=1 / fade_compensate=0.00 / psy_rd=0.75:0.10 / mixed_ref=1 / me_range=16 / chroma_me=1 / trellis=2 / 8x8dct=1 / cqm=0 / deadzone=21,11 / fast_pskip=1 / chroma_qp_offset=-3 / threads=9 / lookahead_threads=1 / sliced_threads=0 / nr=0 / decimate=1 / interlaced=0 / bluray_compat=0 / constrained_intra=0 / fgo=0 / bframes=16 / b_pyramid=2 / b_adapt=2 / b_bias=0 / direct=3 / weightb=1 / open_gop=0 / weightp=2 / keyint=250 / keyint_min=25 / scenecut=40 / intra_refresh=0 / rc=crf / mbtree=0 / crf=20.0000 / qcomp=0.60 / qpmin=0 / qpmax=69 / qpstep=4 / ip_ratio=1.40 / pb_ratio=1.30 / aq=2 / aq-strength=0.65 / aq-sensitivity=10.00 / aq-ifactor=1.00 / aq-pfactor=1.00 / aq-bfactor=1.00 / aq2=0
Language                                 : German
Default                                  : Yes
Forced                                   : No

Audio
ID                                       : 2
Format                                   : AC-3
Format/Info                              : Audio Coding 3
Mode extension                           : CM (complete main)
Format settings, Endianness              : Big
Codec ID                                 : A_AC3
Duration                                 : 1h 59mn
Bit rate mode                            : Constant
Bit rate                                 : 256 Kbps
Channel(s)                               : 1 channel
Channel positions                        : Front: C
Sampling rate                            : 48.0 KHz
Bit depth                                : 16 bits
Compression mode                         : Lossy
Stream size                              : 218 MiB (15%)
Title                                    : DD2.0  256K
Language                                 : German
Default                                  : Yes
Forced                                   : No

Text #1
ID                                       : 3
Format                                   : UTF-8
Codec ID                                 : S_TEXT/UTF8
Codec ID/Info                            : UTF-8 Plain Text
Title                                    : chs
Language                                 : Chinese
Default                                  : Yes
Forced                                   : No

Text #2
ID                                       : 4
Format                                   : UTF-8
Codec ID                                 : S_TEXT/UTF8
Codec ID/Info                            : UTF-8 Plain Text
Title                                    : cht
Language                                 : Chinese
Default                                  : No
Forced                                   : No

Text #3
ID                                       : 5
Format                                   : UTF-8
Codec ID                                 : S_TEXT/UTF8
Codec ID/Info                            : UTF-8 Plain Text
Title                                    : eng
Language                                 : English
Default                                  : No
Forced                                   : No





Relacionado:





Salud.

Volver a Largometrajes de ficción

Antes de empezar, un par de cosas:

Puedes usar las redes sociales para enterarte de las novedades o ayudarnos a difundir lo que encuentres.
Si ahora no te apetece, puedes hacerlo cuando quieras con los botones de arriba.

Facebook Twitter
Telegram YouTube

Sí, usamos cookies. Puedes ver para qué las usamos y cómo quitarlas o simplemente puedes aceptarlo.