RebeldeMule

Odio entre hermanos (Joseph L. Mankiewicz, 1949)

Drama, comedia, suspense; a veces a caballo entre la ficción y la realidad, pero siempre cine para pensar con sentido crítico lo social.
Odio entre hermanos
House of Strangers
Joseph L. Mankiewicz (EE.UU. de América, 1949) [101 min]

Portada Portada
IMDb
(wikipedia | filmaffinity)


Sinopsis:

    [del comité de Rebeldemule] La familia Monetti, con el patriarca Gino a la cabeza, ha visto cumplida la promesa de la movilidad social ascendente en los EE.UU., desde una condición obrera migrante de Italia al establecimiento de un pequeño pero muy lucrativo banco de crédito. Van a descubrir por las malas que el capital no promueve una vida social saludable.

Miquel, en "El hermano menor", en Filmaffinity, el 18 de junio de 2009, escribió:Séptimo largometraje del realizador Joseph Leo Mankiewicz (1909-93), film en general poco conocido y con frecuencia olvidado. El guión, de Philip Yordan y Joseph L. Mankiewicz (no acreditado), adapta por primera vez la novela I'll Never Go There Anymore (1941), de Jerome Weidman (1913-98), lejanamente inspirada en El rey Lear, de William Shakespeare. Se rueda en los Fox Studios (Century City, L.A.). Gana el premio al mejor intérprete masculino (Robinson) del Festival de Cannes. Producido por Sol C. Siegel ("Lanza rota", 1954) para la Fox, se estrena el 1-VII-1949 (EEUU).

[...] La definición de caracteres es sólida y convincente. Gino Monetti es el inmigrante siciliano llegado a principios del XX, austero y trabajador, ambicioso y anárquico, autoritario y rudo, caprichoso y algo primitivo, que ha alcanzado con esfuerzo y trabajo una posición privilegiada. Max Monetti es su hijo menor, que ha tenido más oportunidades que los otros hermanos por ser el más joven. Es el único que tiene estudios superiores, es abogado en ejercicio, trabaja de modo independiente y dispone de una buena clientela propia. La mamma Theresa es el prototipo de mujer sacrificada, callada, sumisa, trabajadora y marginada dentro de la familia. Irene Bennet, clienta de Max, es una mujer inteligente, de carácter firme, seductora, hermosa y sensual. Enamorada de él, siente celos del padre por la influencia que tiene sobre el hijo. Sabe callar, esperar tanto como haga falta y luchar por su amor. Los diálogos son rápidos, fluidos, agudos, ocurrentes y acerados.

Son escenas destacadas la entrevista del padre con los hijos en el dormitorio, los diálogos de Max e Irene en el apartamento, la entrevista de Max con los tres hermanos en el despacho de Joe, etc.

El film aporta informaciones de interés sobre la vida de los inmigrantes europeos llegados a EEUU a principios del XX. Huían de la crisis económica del Viejo Continente y buscaban los beneficios de la prosperidad americana. De su mano, se nos muestra el brillo del “sueño americano” y, a la vez, su fragilidad y sus limitaciones. Al ambientar la historia en los años 30, los de la Gran Depresión (1929-32) y siguientes, se aporta información sobre algunas de las consecuencias de la misma: paro, pobreza, desesperanza. Pone de manifiesto la fragilidad de las aspiraciones personales concentradas, exclusivamente o primordialmente, en el éxito económico. Denuncia la pobreza de espíritu de los envidiosos. Muestra las consecuencias disfuncionales de la educación autoritaria de los hijos. Glosa el sinsentido del odio y de los afanes de venganza, cuando la vida ofrece tantas y tantas cosas positivas al margen de los mismos.


Ficha técnica


Reparto:


Idioma original: Inglés.





Secuencias






DVDRip Dual - AVI (fuente)
detalles técnicos u otros: mostrar contenido
Detalles del ripeo
Tipo: DVDrip.
Formato: Avi
Tamaño: 1.46 GB
Duración: 96 minutos.

Detalles del video
Codec: Xvid
Bitrate: 1959 Kbits /seg.
Dimensiones: 576 X 432 Pix.
Fps: 25.00

Detalles del audio
Idioma: Español
Codec: AC3
Bitrate: 192 Kbits/seg.
Canales: 2

Idioma: Inglés
Codec: AC3
Bitrate: 192 Kbits/seg.
Canales: 2





DVDRip Dual - MKV (x264-AC3) (fuente)
detalles técnicos u otros: mostrar contenido
General
Unique ID : 243554404780441039135829612809707399786 (0xB73ADF439C514543990166C4E0D52A6A)
Complete name : House.of.Strangers.(Joseph.L..Mankiewicz,.1949).(Spanish.English..SpanishSub..EnglishSub).DVD-Rip.x264-AC3.by.DMMD.(divxcl.mkv
Format : Matroska
Format version : Version 4
File size : 2.26 GiB
Duration : 1 h 40 min
Overall bit rate : 3 202 kb/s
Movie name : 1949-House.of.Strangers.DVDx264.AC3.[DMMD]
Encoded date : UTC 2014-11-22 12:01:00
Writing application : mkvmerge v7.2.0 ('On Every Street') 64bit built on Sep 13 2014 15:52:10
Writing library : libebml v1.3.0 + libmatroska v1.4.1
Attachments : house_of_strangers.jpg / house_of_strangers_ver2.jpg / wM828InGXVa5BXpW9HGvwbDD6nn.jpg

Video
ID : 1
Format : AVC
Format/Info : Advanced Video Codec
Format profile : High@L4.1
Format settings : CABAC / 16 Ref Frames
Format settings, CABAC : Yes
Format settings, RefFrames : 16 frames
Codec ID : V_MPEG4/ISO/AVC
Duration : 1 h 40 min
Bit rate : 2 815 kb/s
Width : 720 pixels
Height : 480 pixels
Display aspect ratio : 4:3
Frame rate mode : Constant
Frame rate : 23.976 (24000/1001) FPS
Color space : YUV
Chroma subsampling : 4:2:0
Bit depth : 8 bits
Scan type : Progressive
Bits/(Pixel*Frame) : 0.340
Stream size : 1.98 GiB (88%)
Writing library : x264 core 142 r2479kMod dd79a61
Encoding settings : cabac=1 / ref=16 / deblock=1:-1:-1 / analyse=0x3:0x133 / me=umh / subme=10 / psy=1 / fade_compensate=0.00 / psy_rd=1.00:0.15 / mixed_ref=1 / me_range=24 / chroma_me=1 / trellis=2 / 8x8dct=1 / cqm=0 / deadzone=21,11 / fast_pskip=1 / chroma_qp_offset=-3 / threads=6 / lookahead_threads=1 / sliced_threads=0 / nr=0 / decimate=1 / interlaced=0 / bluray_compat=0 / constrained_intra=0 / fgo=0 / bframes=8 / b_pyramid=2 / b_adapt=2 / b_bias=0 / direct=3 / weightb=1 / open_gop=0 / weightp=2 / keyint=250 / keyint_min=23 / scenecut=40 / intra_refresh=0 / rc_lookahead=60 / rc=crf / mbtree=1 / crf=18.5000 / qcomp=0.60 / qpmin=0 / qpmax=69 / qpstep=4 / ip_ratio=1.40 / aq=1:1.00
Language : English
Default : Yes
Forced : No

Audio #1
ID : 2
Format : AC-3
Format/Info : Audio Coding 3
Commercial name : Dolby Digital
Codec ID : A_AC3
Duration : 1 h 40 min
Bit rate mode : Constant
Bit rate : 192 kb/s
Channel(s) : 2 channels
Channel layout : L R
Sampling rate : 48.0 kHz
Frame rate : 31.250 FPS (1536 SPF)
Bit depth : 16 bits
Compression mode : Lossy
Stream size : 139 MiB (6%)
Language : English
Service kind : Complete Main
Default : No
Forced : No

Audio #2
ID : 3
Format : AC-3
Format/Info : Audio Coding 3
Commercial name : Dolby Digital
Codec ID : A_AC3
Duration : 1 h 40 min
Bit rate mode : Constant
Bit rate : 192 kb/s
Channel(s) : 2 channels
Channel layout : L R
Sampling rate : 48.0 kHz
Frame rate : 31.250 FPS (1536 SPF)
Bit depth : 16 bits
Compression mode : Lossy
Delay relative to video : 28 ms
Stream size : 139 MiB (6%)
Language : Spanish
Service kind : Complete Main
Default : No
Forced : No

Text #1
ID : 4
Format : UTF-8
Codec ID : S_TEXT/UTF8
Codec ID/Info : UTF-8 Plain Text
Duration : 1 h 1 min
Bit rate : 0 b/s
Count of elements : 11
Stream size : 412 Bytes (0%)
Title : Forzados
Language : Spanish
Default : Yes
Forced : No

Text #2
ID : 5
Format : UTF-8
Codec ID : S_TEXT/UTF8
Codec ID/Info : UTF-8 Plain Text
Duration : 1 h 38 min
Bit rate : 68 b/s
Count of elements : 1135
Stream size : 49.6 KiB (0%)
Language : Spanish
Default : No
Forced : No

Text #3
ID : 6
Format : UTF-8
Codec ID : S_TEXT/UTF8
Codec ID/Info : UTF-8 Plain Text
Duration : 1 h 38 min
Bit rate : 69 b/s
Count of elements : 1238
Stream size : 49.9 KiB (0%)
Language : English
Default : No
Forced : No

Menu
00:00:00.000 : en:Chapter 1
00:01:15.367 : en:Chapter 2
00:08:00.166 : en:Chapter 3
00:13:53.199 : en:Chapter 4
00:17:37.832 : en:Chapter 5
00:22:06.799 : en:Chapter 6
00:25:09.532 : en:Chapter 7
00:27:02.832 : en:Chapter 8
00:34:28.499 : en:Chapter 9
00:39:06.665 : en:Chapter 10
00:42:36.532 : en:Chapter 11
00:46:08.532 : en:Chapter 12
00:53:12.365 : en:Chapter 13
00:54:52.065 : en:Chapter 14
00:58:57.899 : en:Chapter 15
01:08:42.332 : en:Chapter 16
01:12:16.998 : en:Chapter 17
01:19:11.665 : en:Chapter 18
01:21:26.665 : en:Chapter 19
01:24:22.698 : en:Chapter 20
01:27:32.865 : en:Chapter 21
01:30:48.832 : en:Chapter 22
01:34:10.699 : en:Chapter 23
01:38:08.499 : en:Chapter 24





HDRip Dual - AVI (XviD-AC3) (fuente)
detalles técnicos u otros: mostrar contenido
General
Complete name : Odio.Entre.Hermanos.(1949).(Spanish.English).HDrip.XviD-AC3.by.FitoCorleone.avi
Format : AVI
Format/Info : Audio Video Interleave
File size : 1.98 GiB
Duration : 1 h 41 min
Overall bit rate : 2 791 kb/s
Writing application : VirtualDubMod 1.5.10.2 (build 2540/release)
Writing library : VirtualDubMod build 2540/release

Video
ID : 0
Format : MPEG-4 Visual
Format profile : Advanced Simple@L5
Format settings : BVOP1
Format settings, BVOP : 1
Format settings, QPel : No
Format settings, GMC : No warppoints
Format settings, Matrix : Default (MPEG)
Codec ID : XVID
Codec ID/Hint : XviD
Duration : 1 h 41 min
Bit rate : 2 393 kb/s
Width : 720 pixels
Height : 536 pixels
Display aspect ratio : 4:3
Frame rate : 23.976 (24000/1001) FPS
Color space : YUV
Chroma subsampling : 4:2:0
Bit depth : 8 bits
Scan type : Progressive
Compression mode : Lossy
Bits/(Pixel*Frame) : 0.259
Stream size : 1.70 GiB (86%)
Writing library : XviD 67

Audio #1
ID : 1
Format : AC-3
Format/Info : Audio Coding 3
Commercial name : Dolby Digital
Codec ID : 2000
Duration : 1 h 40 min
Bit rate mode : Constant
Bit rate : 192 kb/s
Channel(s) : 2 channels
Channel layout : L R
Sampling rate : 48.0 kHz
Frame rate : 31.250 FPS (1536 SPF)
Bit depth : 16 bits
Compression mode : Lossy
Delay relative to video : 150 ms
Stream size : 139 MiB (7%)
Alignment : Split accross interleaves
Interleave, duration : 42 ms (1.01 video frame)
Interleave, preload duration : 500 ms
Service kind : Complete Main

Audio #2
ID : 2
Format : AC-3
Format/Info : Audio Coding 3
Commercial name : Dolby Digital
Codec ID : 2000
Duration : 1 h 41 min
Bit rate mode : Constant
Bit rate : 192 kb/s
Channel(s) : 2 channels
Channel layout : L R
Sampling rate : 48.0 kHz
Frame rate : 31.250 FPS (1536 SPF)
Bit depth : 16 bits
Compression mode : Lossy
Stream size : 139 MiB (7%)
Alignment : Split accross interleaves
Interleave, duration : 42 ms (1.00 video frame)
Interleave, preload duration : 500 ms
Service kind : Complete Main





Relacionado:



[ Add all 7 links to your ed2k client ]



Volver a Largometrajes de ficción

Antes de empezar, un par de cosas:

Puedes usar las redes sociales para enterarte de las novedades o ayudarnos a difundir lo que encuentres.
Si ahora no te apetece, puedes hacerlo cuando quieras con los botones de arriba.

Facebook Twitter
Telegram YouTube

Sí, usamos cookies. Puedes ver para qué las usamos y cómo quitarlas o simplemente puedes aceptarlo.