RebeldeMule

Hndzan (Bagrat Oganesyan, 1974)

Drama, comedia, suspense; a veces a caballo entre la ficción y la realidad, pero siempre cine para pensar con sentido crítico lo social.
Uvas amargas
Hndzan
Bagrat Oganesyan (URSS, 1974) [B/N, 76 min]

Portada
IMDb
(Filmaffinity)


Sinopsis:

    El pequeño Vazik acude día tras día a la estación del tren del pueblo en la esperanza de ver llegar a su padre, Saak, cuya muerte en el frente no acaba ni de asimilar ni de creer.

Ficha técnica

    Guión: Rubén Ovsepyan, Andrei Tarkovsky.
    Música: Robert Amirkhanyan.
    Fotografía: Sergei Israelyan.
    Productora: Armenfilm Studios.

Reparto:

    A. Isahakyan, Sos Sargsyan, H. Azizyan, Alla Tumanian, Vruyr Panoyan, Gurgen Janibekyan, Galya Novents, Azat Sherents.

Idioma original: Ruso.





DVDRip VOS - AVI (de un servidor para KG)
detalles técnicos u otros: mostrar contenido
Código: Seleccionar todo
General
Unique ID                                : 199977505035599766326853193618478083114 (0x9672443A56ED97548A3737F4551C2C2A)
Complete name                            : C:\Users\juaco\Desktop\Bagrat Oganesyan - Hndzan (1974).mkv
Format                                   : Matroska
Format version                           : Version 2
File size                                : 1.17 GiB
Duration                                 : 1h 13mn
Overall bit rate                         : 2 286 Kbps
Encoded date                             : UTC 2014-02-02 04:04:55
Writing application                      : mkvmerge v4.0.0 ('The Stars were mine') built on Jun  6 2010 16:18:42
Writing library                          : libebml v1.0.0 + libmatroska v1.0.0

Video
ID                                       : 1
Format                                   : AVC
Format/Info                              : Advanced Video Codec
Format profile                           : Main@L4.0
Format settings, CABAC                   : Yes
Format settings, ReFrames                : 4 frames
Codec ID                                 : V_MPEG4/ISO/AVC
Duration                                 : 1h 13mn
Bit rate                                 : 1 900 Kbps
Width                                    : 700 pixels
Height                                   : 412 pixels
Display aspect ratio                     : 2.35:1
Original display aspect ratio            : 1.699
Frame rate mode                          : Constant
Frame rate                               : 25.000 fps
Color space                              : YUV
Chroma subsampling                       : 4:2:0
Bit depth                                : 8 bits
Scan type                                : Progressive
Bits/(Pixel*Frame)                       : 0.264
Stream size                              : 973 MiB (81%)
Writing library                          : x264 core 130 r2273 b3065e6
Encoding settings                        : cabac=1 / ref=1 / deblock=1:0:0 / analyse=0x1:0x111 / me=hex / subme=2 / psy=1 / psy_rd=1.00:0.00 / mixed_ref=0 / me_range=16 / chroma_me=1 / trellis=0 / 8x8dct=0 / cqm=0 / deadzone=21,11 / fast_pskip=1 / chroma_qp_offset=0 / threads=1 / lookahead_threads=1 / sliced_threads=0 / nr=0 / decimate=1 / interlaced=0 / bluray_compat=0 / constrained_intra=0 / bframes=3 / b_pyramid=2 / b_adapt=1 / b_bias=0 / direct=1 / weightb=1 / open_gop=0 / weightp=1 / keyint=250 / keyint_min=25 / scenecut=40 / intra_refresh=0 / rc_lookahead=10 / rc=2pass / mbtree=1 / bitrate=1900 / ratetol=1.0 / qcomp=0.60 / qpmin=0 / qpmax=69 / qpstep=4 / cplxblur=20.0 / qblur=0.5 / vbv_maxrate=20000 / vbv_bufsize=25000 / nal_hrd=none / ip_ratio=1.40 / aq=1:1.00
Language                                 : English
Default                                  : Yes
Forced                                   : No
Color primaries                          : BT.601 PAL
Transfer characteristics                 : BT.709
Matrix coefficients                      : BT.601

Audio #1
ID                                       : 2
Format                                   : AC-3
Format/Info                              : Audio Coding 3
Mode extension                           : CM (complete main)
Format settings, Endianness              : Big
Codec ID                                 : A_AC3
Duration                                 : 1h 13mn
Bit rate mode                            : Constant
Bit rate                                 : 192 Kbps
Channel(s)                               : 2 channels
Channel positions                        : Front: L R
Sampling rate                            : 48.0 KHz
Bit depth                                : 16 bits
Compression mode                         : Lossy
Stream size                              : 101 MiB (8%)
Language                                 : Armenian
Default                                  : Yes
Forced                                   : No

Audio #2
ID                                       : 3
Format                                   : AC-3
Format/Info                              : Audio Coding 3
Mode extension                           : CM (complete main)
Format settings, Endianness              : Big
Codec ID                                 : A_AC3
Duration                                 : 1h 13mn
Bit rate mode                            : Constant
Bit rate                                 : 192 Kbps
Channel(s)                               : 2 channels
Channel positions                        : Front: L R
Sampling rate                            : 48.0 KHz
Bit depth                                : 16 bits
Compression mode                         : Lossy
Stream size                              : 101 MiB (8%)
Language                                 : Russian
Default                                  : No
Forced                                   : No

Menu
00:00:00.000                             : en:Chapter 1
00:05:32.000                             : en:Chapter 2
00:15:28.640                             : en:Chapter 3
00:23:19.520                             : en:Chapter 4
00:37:09.640                             : en:Chapter 6
00:43:56.680                             : en:Chapter 7
00:53:26.440                             : en:Chapter 8
00:59:03.800                             : en:Chapter 9
01:06:12.920                             : en:Chapter 10
detalles técnicos u otros: mostrar contenido
Imagen

Imagen

Imagen

Imagen

Imagen

Imagen

Imagen

Imagen

Imagen

Imagen

Imagen

Imagen

Imagen

Imagen


Volver a Largometrajes de ficción

Antes de empezar, un par de cosas:

Puedes usar las redes sociales para enterarte de las novedades o ayudarnos a difundir lo que encuentres.
Si ahora no te apetece, puedes hacerlo cuando quieras con los botones de arriba.

Facebook Twitter
Telegram YouTube

Sí, usamos cookies. Puedes ver para qué las usamos y cómo quitarlas o simplemente puedes aceptarlo.