RebeldeMule

My Childhood (Bill Douglas, 1972)

Drama, comedia, suspense; a veces a caballo entre la ficción y la realidad, pero siempre cine para pensar con sentido crítico lo social.
My Childhood
Bill Douglas Trilogy: Part I
Bill Douglas (Reino Unido, 1972) [B/N, 46 m.].

Portada
IMDb
(Filmaffinity)


Sinopsis:

    Primera parte de la trilogía autobiográfica de Bill Douglas sobre el hecho de crecer en un pueblo pobre de Escocia dedicado a la minería. La penuria, tanto emocional como física, es retratada con libertad, ayudándose de actores locales y no profesionales.

AMG SYNOPSIS: My Childhood is an award-winning black-and-white film which recounts director Bill Douglas' experiences as a child in Scotland during World War II. The movie was shot in the same locations he lived in as a boy. In the film, the boy lives with his half-brother and grandmother in a remote mining village. The bleakness of their lives is brightened by their friendship with a German P.O.W. This short film is the first of three dealing with director Douglas' Scottish childhood. The other two are My Ain Folk and My Way Home. -- Clarke Fountain

Web Xcèntric, en "En primera persona: la trilogía autobiográfica de Bill Douglas", en CCCB, el 9 de marzo de 2003, escribió:El prematuramente desaparecido Bill Douglas reconstruye, a partir de su memoria personal, la historia de Jamie, su alter ego fílmico, desde su vida como niño pobre en un pequeño pueblo minero escocés hasta su edad adulta, en una honda evocación autobiográfica que raya a la altura de las otras dos grandes trilogías de formación (Apu/Ray, Máximo/Donskoi). El cineasta escocés trabaja en los intersticios de la memoria, la imaginación y el realismo, avanzando por sus sentidos pasajes vivenciales a partir de destellos, de momentos brillantes que exponen un acontecimiento único, con una narrativa exigua y rigurosa, y un estilo seco que no elude la belleza formal. A través de la intimidad de la experiencia revelada, fiándolo todo a la mediación intuitiva de las imágenes de la memoria, Douglas da forma a una interpretación poética de la realidad de un mundo de miseria en el que la imaginación parece ser un acto de resistencia y el cine, futuro camino de perfección, la única posibilidad de belleza.

En BFI se escribió:Douglas's remarkable trilogy of powerful films of childhood and youth display an original and powerful artistic vision. The narrative arc is biographical; in Jamie, we embark on a journey into the artist's experience, growing up in a poverty-stricken mining village in the post-war era, at the mercy of brutal, loveless surroundings and the relatives and neighbours responsible for his welfare. But these films are not a depressing experience. Jamie is a survivor, bold and curious, and his story is ultimately redemptive. The cinematography is beautiful, creating visual poetry from startling, bleak monochrome images. When Bill Douglas died in 1991, British cinema lost one of its most original, and neglected artists.

- "My Childhood" (1972). Set in 1945, the first part of Douglas’ triptych revisits his impoverished childhood, living with his grandmother and half-brother in the Scottish mining village of Newcraighall. The austere but beautiful black-and-white camerawork perfectly captures the harsh realities of an existence which finds the eight-year-old Jamie often taking solace from the movies. — Geoff Andrew.

- "My Ain Folk" (1973). Though life becomes even harder for Jamie, so that he eventually ends up in a none-too-comforting children’s home, the bold, uncompromising assurance of Douglas’ very personal brand of realism ensures that the film effortlessly avoids the pitfalls of sentimentality or self-pity. Rather, it is so firmly grounded in specific memories that the boy’s experiences feel quite universal in their relevance. — Geoff Andrew.

- "My Way Home" (1978). Old enough to work, Jamie leaves the children's home to live with his paternal grandmother, but is soon conscripted into the RAF. Ironically, military service in Egypt brings a sense of freedom and friendship unimaginable in earlier years… Having refused to soft-pedal on life’s hardships, Douglas here achieves a very deep and genuine sense of release, compassion and redemption.— Geoff Andrew.

    Otras referencias
    - Bill Douglas (1934-1991). Screenonline (en inglés).
    - Trilogie Bill Douglas. Olivier Père, ArteTV (en francés).

Ficha técnica

    Guión: Bill Douglas.
    Fotografía: Mick Campbell (B&W).
    Producción: Geoffrey Evans.
    Productora: British Film Institute (BFI).

Reparto:

  • Stephen Archibald (Jamie).
  • Karl Fieseler (Helmuth).
  • Hughie Restorick (Tommy).
  • Jean Taylor-Smith (Grandma).
  • Bernard McKenna (Tommy's Father).
  • Helena Gloag (Tommy's Mother).
  • Ann Smith (Jamie's Mother).

Género:

    Drama social / Autobiografía, Infancia, SGM, Minería, Mediometraje.




BDRip VO+S - MKV (Publicada por Andrei en sharethefiles.)





BluRay HD 720p VO+S (versión BFI) - MKV
detalles técnicos u otros: mostrar contenido
Portada
** Bill Douglas Trilogy - BFI (2009) / 1.34:1 / 00:46:25 / Subs: English / [reeditado en 2012] **
DVDBeaver / BluRay.com

Datos técnicos. I Parte:
** HD 720p VO / AC3 2.0 / 960x720 (4:3 / 1.333) / 00:46:26 (46 m.) / 24 fps. **
## My.Childhood.1972.Bluray.720p.x264.AC3-CHD.mkv [2.17 Gb] ##

Código: Seleccionar todo
General
Complete name                            : Bill.Douglas.Trilogy.BluRay.720p.AC3.x264-CHD\My.Childhood.1972.Bluray.720p.x264.AC3-CHD\My.Childhood.1972.Bluray.720p.x264.AC3-CHD.mkv
Format                                   : Matroska
Format version                           : Version 1
File size                                : 2.18 GiB
Duration                                 : 46mn 26s
Overall bit rate                         : 6 721 Kbps
Encoded date                             : UTC 2010-07-20 00:45:48
Writing application                      : mkvmerge v2.6.0 ('Kelly watch the Stars') built on Mar 24 2009 15:23:17
Writing library                          : libebml v0.7.7 + libmatroska v0.8.1

Video
ID                                       : 1
Format                                   : AVC
Format/Info                              : Advanced Video Codec
Format profile                           : High@L4.1
Format settings, CABAC                   : Yes
Format settings, ReFrames                : 8 frames
Codec ID                                 : V_MPEG4/ISO/AVC
Duration                                 : 46mn 26s
Bit rate                                 : 6 273 Kbps
Width                                    : 960 pixels
Height                                   : 720 pixels
Display aspect ratio                     : 4:3
Frame rate mode                          : Constant
Frame rate                               : 24.000 fps
Color space                              : YUV
Chroma subsampling                       : 4:2:0
Bit depth                                : 8 bits
Scan type                                : Progressive
Bits/(Pixel*Frame)                       : 0.378
Stream size                              : 1.99 GiB (91%)
Writing library                          : x264 core 88 r1471 1144615
Encoding settings                        : cabac=1 / ref=8 / deblock=1:-3:-3 / analyse=0x3:0x113 / me=umh / subme=9 / psy=1 / psy_rd=1.00:0.10 / mixed_ref=1 / me_range=32 / chroma_me=1 / trellis=2 / 8x8dct=1 / cqm=2 / deadzone=21,11 / fast_pskip=0 / chroma_qp_offset=-2 / threads=6 / sliced_threads=0 / nr=0 / decimate=1 / mbaff=0 / constrained_intra=0 / bframes=3 / b_pyramid=2 / b_adapt=2 / b_bias=0 / direct=3 / wpredb=1 / wpredp=2 / keyint=250 / keyint_min=25 / scenecut=40 / intra_refresh=0 / rc_lookahead=60 / rc=2pass / mbtree=1 / bitrate=6273 / ratetol=1.0 / qcomp=0.60 / qpmin=10 / qpmax=51 / qpstep=4 / cplxblur=20.0 / qblur=0.5 / vbv_maxrate=50000 / vbv_bufsize=50000 / ip_ratio=1.40 / aq=1:0.60
Language                                 : English
Default                                  : Yes
Forced                                   : No

Audio
ID                                       : 2
Format                                   : AC-3
Format/Info                              : Audio Coding 3
Mode extension                           : CM (complete main)
Format settings, Endianness              : Big
Codec ID                                 : A_AC3
Duration                                 : 46mn 26s
Bit rate mode                            : Constant
Bit rate                                 : 448 Kbps
Channel(s)                               : 2 channels
Channel positions                        : Front: L R
Sampling rate                            : 48.0 KHz
Bit depth                                : 16 bits
Compression mode                         : Lossy
Stream size                              : 149 MiB (7%)
Default                                  : Yes
Forced                                   : No





:str: Reproducción:





Relacionado:





Salud.

[ Add all 2 links to your ed2k client ]

Volver a Largometrajes de ficción

Antes de empezar, un par de cosas:

Puedes usar las redes sociales para enterarte de las novedades o ayudarnos a difundir lo que encuentres.
Si ahora no te apetece, puedes hacerlo cuando quieras con los botones de arriba.

Facebook Twitter
Telegram YouTube

Sí, usamos cookies. Puedes ver para qué las usamos y cómo quitarlas o simplemente puedes aceptarlo.