RebeldeMule

El santo (Satyajit Ray, 1965)

Drama, comedia, suspense; a veces a caballo entre la ficción y la realidad, pero siempre cine para pensar con sentido crítico lo social.
El santo
Mahapurush
Satyajit Ray (India, 1965) [B/N, 65 m.].

Portada
IMDb
(Wikipedia | Filmaffinity)


Sinopsis:

    [fuente] La llegada de un Hombre Santo y su ayudante a la casa de una familia adinerada pondrá de manifiesto los fanatismos religiosos de la sociedad local, pero también suscitará en algunos la sospecha de que el venerado personaje no sea más que un impostor. Emitida en cines en programa doble junto a "Kapurush" ("El Cobarde").

Comentario personal:

    "La religión es el opio de los pueblos" (Carlos Marx); la ingenuidad y el fanatismo, el maná de los sinvergüenzas (JD).

En DeCine21 se escribió:Gurupada es un abogado muy triste y deprimido desde que enviudó. Padre de una hija, Buchki, va a cambiar su vida cuando conoce al santón Birinchi Baba, que asegura no tener edad, y haber departido a lo largo de vida con Jesús, Platón, Buda, Einstein... Birinchi tiene muchos discípulos y gran éxito de público, de modo que Gurupada se unirá al grupo pues allí encuentra consuelo. La misma decisión tomará Buchki, aunque por razones bien diversas: su novio Satya le ha decepcionado, y quiere provocarle con su nueva devoción. Esto empujará a Satya a tratar de demostrar que Birinchi es un impostor.

Adaptación de un relato de Parashuram a cargo de Satyajit Ray, se trata de una fábula satírica acerca de la credulidad y el engaño. En apenas una hora el cineasta bengalí perfila la psicología del charlatán y de quien está dispuesto a creer cualquier cosa para evitar afrontar la realidad de la vida. Hay algún recurso audaz como la explicación de los lazos que unen a los personajes o la congelación de un fotograma cuando un tipo está narrando un suceso y es interrumpido.

IMDb. A retired lawyer meets a holy man # Birinchi Baba (Charuprakash Ghosh) and his assistant (Robi Ghosh) # on his way back from a pilgrimage # and is totally taken in by his supernatural life. The holy man is on first name terms with Buddha and all the gods of the Hindu pantheon. What the world calls 'Cruci-fiction' he calls 'Cruci-fact' because he has seen it with his own eyes! He even starts giving orations to an audience of the rich and famous at the lawyer's residence. The gullible lawyer decides to get his entire family initiated into the guru's fold # including his unmarried younger daughter (Gitali Roy) who is being courted by a young man (Satindra Bhattacharya). His group of intelligent and rationalist friends (Somen Bose et al) decide to take matters in their own hands # and hatch a plot to expose the smooth-talking charlatan.

AMG SYNOPSIS: Charaprakash Ghosh plays a bogus holy man in this comedy drama from celebrated Indian director Satyajit Ray. The Holy Man is adopted by a wealthy man who hopes to find a husband for his marriageable daughter. A poor but honest swain exposes the bogus Holy Man and wins the heart of the wealthy man's daughter. -- Dan Pavlides

Akira Kurosawa escribió:No haber visto el cine de Salvajit Ray es como existir en este mundo y no haber visto el sol o la luna.

James Ivory escribió:Satyajit Ray es uno de los más grandes directores de cine del mundo, vivos o muertos!

    Otras referencias
    - Satyajit Ray. Claqueta.
    - SATYAJIT RAY. Indiga.
    - "SATYAJIT RAY. EL RAY GRANDE", por Luis Betran. A Cuarta Parede.
    - Retrospectiva de la filmografía de Satyajit Ray, Zinemateka de AlhóndigaBilbao. Hoy es Arte.

Ficha técnica

    Otros títulos internacionales: The Holy Man / The Saint / Le Saint.
    Argumento: Rajshekhar 'Parashuram' Basu (relato, "Birinchi Baba").
    Guión: Satyajit Ray.
    Fotografía: Soumendu Roy (B&W).
    Música: Satyajit Ray.
    Producción: R.D. Bansal
    Productora: R.D.Banshal & Co./ Rajshri Productions.

Reparto:

  • Charuprakash Ghosh (Birinchi Baba).
  • Robi Ghosh (Birinchi Baba's assistant).
  • Prasad Mukherjee (Gurupada Mitter - aka Prasad Mukhopadhyay).
  • Gitali Roy (Buchki).
  • Satindra Bhattacharya (Satya).
  • Somen Bose (Nibaran - aka Somen Basu).
  • Santosh Dutta (Professor Nani).
  • Renuka Roy (Nani's wife).
  • Satya Banerjee (Nitai - aka Satya Bandyopadhyay).
  • Haridhan Mukherjee (Ganesh - aka Haridhan Mukhopadhyay).
  • J. Banerjee.
  • Dilip Bose (aka Dilip Basu).
  • Jagat Chakraborty.
  • Ila Chatterjee (aka Ila Chattopadhyay).
  • Santi Chatterjee (aka Shanti Chattopadhyay).
  • Shrikanto Chattopadhyay.
  • Shailen Ganguli.
  • Nirmal Ghosh.
  • Ajit Gupta.
  • P. Pal.
  • Nani Sardar.
  • Prabhat Sarkar.
  • Aditya Singh.
  • Mani Srimani.

Género:

    Comedia, Sátira / Religión, Fanatismo, Mediometraje.




Secuencias

    Portada
    "Me llamo Satyajit Ray y hago películas bengalíes".




BluRay HD 720p VO+S - MKV
detalles técnicos u otros: mostrar contenido
** Artificial Eye (2013) / 65 m. **
BluRay.com

Datos técnicos:
** versión HD 720p VO+SI / AC3 2.0 / 960x720 (4:3 / 1.333) / 66 m. / 24 fps **
## Mahapurush.1965.720p.BluRay.x264-KG.mkv [1.89 Gb] ##
** IMDb AR -- / 65 m. / Bengalí **

Código: Seleccionar todo
General
Complete name                            : Mahapurush.1965.720p.BluRay.x264-KG [PublicHD]\Mahapurush.mkv
Format                                   : Matroska
Format version                           : Version 2
File size                                : 1.89 GiB
Duration                                 : 1h 6mn
Overall bit rate                         : 4 083 Kbps
Encoded date                             : UTC 2013-09-30 15:55:44
Writing application                      : mkvmerge v5.8.0 ('No Sleep / Pillow') built on Sep  2 2012 15:37:04
Writing library                          : Lavf54.29.104

Video
ID                                       : 1
Format                                   : AVC
Format/Info                              : Advanced Video Codec
Format profile                           : High@L3.1
Format settings, CABAC                   : Yes
Format settings, ReFrames                : 4 frames
Codec ID                                 : V_MPEG4/ISO/AVC
Duration                                 : 1h 6mn
Bit rate                                 : 3 810 Kbps
Width                                    : 960 pixels
Height                                   : 720 pixels
Display aspect ratio                     : 4:3
Frame rate mode                          : Constant
Frame rate                               : 24.000 fps
Color space                              : YUV
Chroma subsampling                       : 4:2:0
Bit depth                                : 8 bits
Scan type                                : Progressive
Bits/(Pixel*Frame)                       : 0.230
Stream size                              : 1.77 GiB (93%)
Writing library                          : x264 core 120 r2120 0c7dab9
Encoding settings                        : cabac=1 / ref=3 / deblock=1:0:0 / analyse=0x3:0x113 / me=hex / subme=9 / psy=1 / psy_rd=1.00:0.00 / mixed_ref=1 / me_range=16 / chroma_me=1 / trellis=1 / 8x8dct=1 / cqm=0 / deadzone=21,11 / fast_pskip=1 / chroma_qp_offset=-2 / threads=12 / sliced_threads=0 / nr=0 / decimate=1 / interlaced=0 / bluray_compat=0 / constrained_intra=0 / bframes=3 / b_pyramid=2 / b_adapt=1 / b_bias=0 / direct=1 / weightb=1 / open_gop=0 / weightp=2 / keyint=250 / keyint_min=23 / scenecut=40 / intra_refresh=0 / rc_lookahead=40 / rc=crf / mbtree=1 / crf=23.0 / qcomp=0.60 / qpmin=0 / qpmax=51 / qpstep=4 / ip_ratio=1.40 / aq=1:1.00
Default                                  : Yes
Forced                                   : No
Matrix coefficients                      : SMPTE 240M

Audio
ID                                       : 2
Format                                   : AC-3
Format/Info                              : Audio Coding 3
Mode extension                           : CM (complete main)
Format settings, Endianness              : Big
Codec ID                                 : A_AC3
Duration                                 : 1h 6mn
Bit rate mode                            : Constant
Bit rate                                 : 192 Kbps
Channel(s)                               : 2 channels
Channel positions                        : Front: L R
Sampling rate                            : 48.0 KHz
Bit depth                                : 16 bits
Compression mode                         : Lossy
Delay relative to video                  : -125ms
Stream size                              : 91.2 MiB (5%)
Default                                  : Yes
Forced                                   : No

Text
ID                                       : 3
Format                                   : UTF-8
Codec ID                                 : S_TEXT/UTF8
Codec ID/Info                            : UTF-8 Plain Text
Language                                 : English
Default                                  : Yes
Forced                                   : No





Relacionado:





Salud.

[ Add all 2 links to your ed2k client ]

Volver a Largometrajes de ficción

Antes de empezar, un par de cosas:

Puedes usar las redes sociales para enterarte de las novedades o ayudarnos a difundir lo que encuentres.
Si ahora no te apetece, puedes hacerlo cuando quieras con los botones de arriba.

Facebook Twitter
Telegram YouTube

Sí, usamos cookies. Puedes ver para qué las usamos y cómo quitarlas o simplemente puedes aceptarlo.