RebeldeMule

El mago de los sueños (Francisco Macián, 1966)

Drama, comedia, suspense; a veces a caballo entre la ficción y la realidad, pero siempre cine para pensar con sentido crítico lo social.
El mago de los sueños
La familia Telerín: la película
Francisco Macián (España, 1966) [70 min]

Portada
IMDb
(wikipedia | filmaffinity)


Sinopsis:

    [fuente] El filme está basado en cuentos de Hans Christian Andersen, como Pulgarcito y presenta por primera vez al personaje llamado el Mago de los Sueños, una especie de duende con gafas cuya tarea principal es vencer a Don Coco Quitasueños y lograr que los niños consigan dormirse y poder contarles un sueño. Cada uno de los niños de la Familia Telerín tiene un sueño, el que intenta dejar un mensaje al espectador infantil. Las historias comienzan con el sueño de Cuquín, el más pequeño de los Telerines y finaliza con el sueño de Colitas.

En Filmaffinity se escribió:Film estrenado en las navidades de 1966, estaba protagonizado por la familia Telerín y adaptaba varios cuentos infantiles escritos por Hans Christian Andersen.

El compañero Planeta Horizontal escribió:Repasa la importancia de la justicia, la valentía, el conocimiento, la curiosidad y la consideración hacia los demás.


Ficha técnica

    Guión: Francisco Macián, Alicia Soriano; basado en las historias de Hans Christian Andersen.
    Música: José Solá.
    Productora: Estudios Macián.

Idioma original: Castellano.





¿?Rip VO - AVI
detalles técnicos u otros: mostrar contenido
General
Formato : AVI
Formato/Info : Audio Video Interleave
Tamaño del archivo : 688MB
Duración : 1h 6min.
Modo de tasa de bits : Variable
Tasa de bits total : 1 448Kbps
Aplicación de codifición : SpanishDub 1.4.13
Librería de codificación : VirtualDub build 14328/release

Video
ID : 0
Formato : MPEG-4 Visual
Ajustes del formato, BVOP : Si
Ajustes del formato, Qpel : No
Ajustes del formato, GMC : No warppoints
Ajustes del formato, Matrix : Default (H.263)
ID Códec : DIVX
ID Códec/Info : Project Mayo
ID Códec/Pista : DivX 4
Duración : 1h 6min.
Tasa de bits : 1 320Kbps
Ancho : 320pixeles
Alto : 240pixeles
Relación de aspecto : 4:3
Velocidad de cuadro : 25,000fps
ColorSpace : YUV
ChromaSubsampling : 4:2:0
BitDepth/String : 8bits
Tipo de exploración : Progresivo
Bits/(Pixel*cuadro) : 0.688
Tamaño de pista : 628MB (91%)

Audio
ID : 1
Formato : MPEG Audio
Formato de la versión : Version 1
Formato del perfil : Layer 3
Format_Settings_Mode : Joint stereo
Format_Settings_ModeExtension : MS Stereo
ID Códec : 55
ID Códec/Pista : MP3
Duración : 1h 6min.
Tipo de tasa de bits : Variable
Tasa de bits : 118Kbps
Canal(es) : 2canales
Velocidad de muestreo : 44,1KHz
Tamaño de pista : 56,0MB (8%)
Alineación : Dividir a través entrelazado
Entrelazado, duración : 40 ms (1,00fotograma de video)
Entrelazado, duración de precarga : 462 ms





¿?Rip VO





BDRip 720p VO - MKV (AVC-dts) (fuente)
detalles técnicos u otros: mostrar contenido
General
Unique ID : 210144751106616176032657715189889535215 (0x9E1868295DD64F0F87A2D2EE333E8CEF)
Complete name : El.mago.de.los.suenos.(1966).[BDRip.720p.x264.Cast..DTS.5.1.Subt][Grupo.HDS.(Spanish).Bdrip.720p.AVC-dts.by.GrupoHDS.mkv
Format : Matroska
Format version : Version 4
File size : 5.71 GiB
Duration : 1 h 12 min
Overall bit rate : 11.3 Mb/s
Movie name : El mago de los sueños (1966) [BDRip 720p x264 Cast. DTS 5.1 Subt.][GrupoHDS] -majprieto
Encoded date : UTC 2017-08-22 15:09:00
Writing application : mkvmerge v7.8.0 ('River Man') 64bit built on Mar 27 2015 16:31:37
Writing library : libebml v1.3.1 + libmatroska v1.4.2

Video
ID : 1
Format : AVC
Format/Info : Advanced Video Codec
Format profile : High@L4.1
Format settings : CABAC / 12 Ref Frames
Format settings, CABAC : Yes
Format settings, RefFrames : 12 frames
Codec ID : V_MPEG4/ISO/AVC
Duration : 1 h 12 min
Bit rate : 9 587 kb/s
Width : 960 pixels
Height : 720 pixels
Display aspect ratio : 4:3
Frame rate mode : Constant
Frame rate : 24.000 FPS
Color space : YUV
Chroma subsampling : 4:2:0
Bit depth : 8 bits
Scan type : Progressive
Bits/(Pixel*Frame) : 0.578
Stream size : 4.83 GiB (85%)
Title : El mago de los sueños (1966) [BDRip 720p x264 Cast. DTS 5.1 Subt.][GrupoHDS] -majprieto
Writing library : x264 core 152 r2851 ba24899
Encoding settings : cabac=1 / ref=12 / deblock=1:-3:-3 / analyse=0x3:0x133 / me=umh / subme=11 / psy=1 / psy_rd=1.10:0.00 / mixed_ref=1 / me_range=32 / chroma_me=1 / trellis=2 / 8x8dct=1 / cqm=0 / deadzone=21,11 / fast_pskip=0 / chroma_qp_offset=-2 / threads=18 / lookahead_threads=4 / sliced_threads=0 / nr=0 / decimate=0 / interlaced=0 / bluray_compat=0 / constrained_intra=0 / bframes=10 / b_pyramid=2 / b_adapt=2 / b_bias=0 / direct=3 / weightb=0 / open_gop=0 / weightp=2 / keyint=240 / keyint_min=24 / scenecut=40 / intra_refresh=0 / rc_lookahead=60 / rc=crf / mbtree=0 / crf=16.5 / qcomp=0.60 / qpmin=0 / qpmax=69 / qpstep=4 / vbv_maxrate=50000 / vbv_bufsize=62500 / crf_max=0.0 / nal_hrd=none / filler=0 / ip_ratio=1.40 / pb_ratio=1.30 / aq=3:0.70
Language : Spanish
Default : Yes
Forced : No

Audio
ID : 2
Format : DTS
Format/Info : Digital Theater Systems
Codec ID : A_DTS
Duration : 1 h 12 min
Bit rate mode : Constant
Bit rate : 1 509 kb/s
Channel(s) : 6 channels
Channel layout : C L R Ls Rs LFE
Sampling rate : 48.0 kHz
Frame rate : 93.750 FPS (512 SPF)
Bit depth : 24 bits
Compression mode : Lossy
Stream size : 779 MiB (13%)
Title : Castellano DTS 5.1 @ 1509 Kbps --> Core DTS-HD MA 5.1 de BD ESP
Language : Spanish
Default : Yes
Forced : No

Text
ID : 3
Format : UTF-8
Codec ID : S_TEXT/UTF8
Codec ID/Info : UTF-8 Plain Text
Title : Castellano forzados planos
Language : Spanish
Default : Yes
Forced : Yes

Menu
00:00:00.000 : en:00:00:00.000
00:05:37.000 : en:00:05:37.000
00:13:44.875 : en:00:13:44.875
00:20:36.875 : en:00:20:36.875
00:29:05.000 : en:00:29:05.000
00:35:43.125 : en:00:35:43.125
00:42:25.000 : en:00:42:25.000
00:49:04.500 : en:00:49:04.500
00:57:19.500 : en:00:57:19.500
01:04:56.250 : en:01:04:56.250
01:12:04.125 : en:01:12:04.125





:str: Reproducción:





Relacionado:

    Portada
    Cine Infantil
    Monografías. ()
    Elinks y guías para el cine+taller infantil (los más pequeños). Se dividen en largometrajes, cortometrajes y series. Los elinks corresponden a la versión de mayor resolución/calidad de las disponibles en el emule, a fin de que puedan ser usadas en un...


[ Add all 2 links to your ed2k client ]



Volver a Largometrajes de ficción

Antes de empezar, un par de cosas:

Puedes usar las redes sociales para enterarte de las novedades o ayudarnos a difundir lo que encuentres.
Si ahora no te apetece, puedes hacerlo cuando quieras con los botones de arriba.

Facebook Twitter
Telegram YouTube

Sí, usamos cookies. Puedes ver para qué las usamos y cómo quitarlas o simplemente puedes aceptarlo.