RebeldeMule

Lejos del mundanal ruido (John Schlesinger, 1967)

Drama, comedia, suspense; a veces a caballo entre la ficción y la realidad, pero siempre cine para pensar con sentido crítico lo social.
Lejos del mundanal ruido
Far from the Madding Crowd
John Schlesinger (Reino Unido, 1967) [168 min]

Portada
IMDb
(wikipedia | filmaffinity)


Sinopsis:

    Drama de época basado en la conocida novela de Thomas Hardy, que relata la historia de una bella y seductora mujer, propietaria de la mayor granja de la localidad, que se encuentra en la situación de elegir entre tres hombres que la pretenden.

    PREMIOS: National Board of Rewiew, USA: Peter Finch, mejor actor y mejor película de habla inglesa.

Ficha técnica

    Guión: Frederic Raphael (Novela: Thomas Hardy).
    Música: Richard Rodney Bennett.
    Fotografía: Nicolas Roeg.

Reparto:

    Julie Christie, Peter Finch, Terence Stamp, Alan Bates, Fiona Walker, Prunella Ransome, Alison Leggatt, Paul Dawkins.




DVDRip Dual - AVI
detalles técnicos u otros: mostrar contenido
General
Complete name : Far From The Madding Crowd DVDRip Dual [Esp&Ing] Xvid.Mp3[DXC].avi
Format : AVI
Format/Info : Audio Video Interleave
Format profile : OpenDML
File size : 2.33 GiB
Duration : 2h 43mn
Overall bit rate : 2 037 Kbps
Writing application : VirtualDubMod 1.5.10.2 (build 2540/release)
Writing library : VirtualDubMod build 2540/release

Video
ID : 0
Format : MPEG-4 Visual
Format profile : Advanced Simple@L5
Format settings, BVOP : Yes
Format settings, QPel : No
Format settings, GMC : No warppoints
Format settings, Matrix : Default (MPEG)
Codec ID : XVID
Codec ID/Hint : XviD
Duration : 2h 43mn
Bit rate : 1 636 Kbps
Width : 720 pixels
Height : 304 pixels
Display aspect ratio : 2.35:1
Frame rate : 25.000 fps
Color space : YUV
Chroma subsampling : 4:2:0
Bit depth : 8 bits
Scan type : Progressive
Bits/(Pixel*Frame) : 0.299
Stream size : 1.87 GiB (80%)
Writing library : XviD 1.2.1 (UTC 2008-12-04)

Audio #1
ID : 1
Format : MPEG Audio
Format version : Version 1
Format profile : Layer 3
Codec ID : 55
Codec ID/Hint : MP3
Duration : 2h 43mn
Bit rate mode : Constant
Bit rate : 192 Kbps
Channel(s) : 1 channel
Sampling rate : 48.0 KHz
Stream size : 225 MiB (9%)
Alignment : Aligned on interleaves
Interleave, duration : 40 ms (1.00 video frame)
Interleave, preload duration : 504 ms
Writing library : LAME3.98r
Encoding settings : -m m -V 4 -q 2 -lowpass 20.5 -b 192

Audio #2
ID : 2
Format : MPEG Audio
Format version : Version 1
Format profile : Layer 3
Mode : Joint stereo
Mode extension : MS Stereo
Codec ID : 55
Codec ID/Hint : MP3
Duration : 2h 43mn
Bit rate mode : Constant
Bit rate : 192 Kbps
Channel(s) : 2 channels
Sampling rate : 48.0 KHz
Stream size : 225 MiB (9%)
Alignment : Aligned on interleaves
Interleave, duration : 40 ms (1.00 video frame)
Interleave, preload duration : 504 ms





Relacionado:


yo he visto la pelicula,y desaconsejo descargarla.Es un toston de pelicula.Es como "lo que el viento se llevo" pero ambientado en Inglaterra,o para ser mas exactos un culebron sudamericano pero ambientado en la Inglaterra de 2ª mitad del siglo XIX.



Volver a Largometrajes de ficción

Antes de empezar, un par de cosas:

Puedes usar las redes sociales para enterarte de las novedades o ayudarnos a difundir lo que encuentres.
Si ahora no te apetece, puedes hacerlo cuando quieras con los botones de arriba.

Facebook Twitter
Telegram YouTube

Sí, usamos cookies. Puedes ver para qué las usamos y cómo quitarlas o simplemente puedes aceptarlo.