RebeldeMule

Darling (John Schlesinger, 1965)

Drama, comedia, suspense; a veces a caballo entre la ficción y la realidad, pero siempre cine para pensar con sentido crítico lo social.
Darling
John Schlesinger (Reino Unido, 1965) [128 min]

Portada
IMDb
(wikipedia | filmaffinity)


Sinopsis:

    Una hermosa joven, modelo de profesión, se casa con un aristócrata italiano. Convertida en una importante figura de la alta sociedad, se sincera a una periodista. Tras una aparente vida de ensueño, se esconde una persona desganada y vacía. Gran éxito mundial y consagración definitiva de Julie Christie conjuntamente con la película del mismo año "Doctor Zhivago".

Ficha técnica

    Guión: Frederic Raphael.
    Música: John Dankworth.
    Fotografía: Ken Higgins (B&W).
    Productora: Metro-Goldwyn-Mayer.

Reparto:

    Laurence Harvey, Dirk Bogarde, Julie Christie, José Luis de Villalonga, Roland Curran, Basil Henson, Helen Lindsay, Carlo Palmucci.




DVDRip VO+S (Versión Uncut) - AVI
detalles técnicos u otros: mostrar contenido
General
Complete name : Y:\Films\D\Darling.avi
Format : AVI
Format/Info : Audio Video Interleave
Format profile : OpenDML
File size : 2.23 GiB
Duration : 2h 3mn
Overall bit rate : 2 600 Kbps
Writing application : VirtualDubMod 1.5.4.1 (build 2178/release)
Writing library : VirtualDubMod build 2178/release

Video
ID : 0
Format : MPEG-4 Visual
Format profile : Advanced Simple@L5
Format settings, BVOP : 1
Format settings, QPel : No
Format settings, GMC : No warppoints
Format settings, Matrix : Custom
Codec ID : XVID
Codec ID/Hint : XviD
Duration : 2h 3mn
Bit rate : 2 399 Kbps
Width : 720 pixels
Height : 448 pixels
Display aspect ratio : 1.607
Frame rate : 25.000 fps
Color space : YUV
Chroma subsampling : 4:2:0
Bit depth : 8 bits
Scan type : Progressive
Compression mode : Lossy
Bits/(Pixel*Frame) : 0.297
Stream size : 2.06 GiB (92%)
Writing library : XviD 1.2.1 (UTC 2008-12-04)

Audio
ID : 1
Format : AC-3
Format/Info : Audio Coding 3
Mode extension : CM (complete main)
Codec ID : 2000
Duration : 2h 2mn
Bit rate mode : Constant
Bit rate : 192 Kbps
Channel(s) : 2 channels
Channel positions : Front: L R
Sampling rate : 48.0 KHz
Bit depth : 16 bits
Compression mode : Lossy
Stream size : 169 MiB (7%)
Alignment : Split accross interleaves
Interleave, duration : 96 ms (2.40 video frames)
Interleave, preload duration : 96 ms
Language : English





Relacionado:




Volver a Largometrajes de ficción

Antes de empezar, un par de cosas:

Puedes usar las redes sociales para enterarte de las novedades o ayudarnos a difundir lo que encuentres.
Si ahora no te apetece, puedes hacerlo cuando quieras con los botones de arriba.

Facebook Twitter
Telegram YouTube

Sí, usamos cookies. Puedes ver para qué las usamos y cómo quitarlas o simplemente puedes aceptarlo.