RebeldeMule

Morgan, un caso clínico (Karel Reisz, 1966)

Drama, comedia, suspense; a veces a caballo entre la ficción y la realidad, pero siempre cine para pensar con sentido crítico lo social.
Morgan, un caso clínico
Morgan. A Suitable Case for Treatment
Karel Reisz (Reino Unido, 1966) [97 min]

Portada
IMDb
(wikipedia | filmaffinity)


Sinopsis:

    Morgan es un artista que, influido por las ideas marxistas de su madre, siente la necesidad de rebelarse contra el orden social establecido y contra toda clase de convencionalismos. Pero esta actitud lo alejará cada vez más de la realidad y, poco a poco, contraerá una grave patología psicológica.

Pepe Gutiérrez-Álvarez, en "Algunas notas sobre Trotsky y el cine", en Fundación Andreu Nin, en marzo 2004, escribió:[...] Morgan (un brillante David Warner) es el airado hijo de una obrera comunista casado con una bella inconformista -Vanessa Redgrave-, que se debate entre sus sueños revolucionarios representados por escenas épicas de "Octubre", así como las dolorosas reflexiones sobre el errático destino de Trotsky -y de la mítica revolucionaria- aplastado por la burocracia hasta que, por la suma de crisis y contradicciones, acaba internado en un psiquiátrico cuyo jardín conforma una gigantesca imagen de la hoz y el martillo. Algunos de los temas presentes en esta olvidada película (que fue estrenada aquí, suponemos porque era susceptible de una interpretación reaccionaria: los sueños de la revolución llevan a la locura), las difíciles vivencias de personajes outsiders, que viven en una delgada frontera entre los sueños emancipadores y los fracasos, reaparecen de nuevo en la siguiente película de Reisz, "Isadora".


Ficha técnica

    Guión: David Mercer.
    Música: John Dankworth.
    Fotografía: Gerry Turpin, Larry Pizer.
    Productora: British Lion Film Corporation / Quintra.

Reparto:

  • David Warner.
  • Vanessa Redgrave.
  • Robert Stephens.
  • Irene Handl.
  • Bernard Bresslaw.
  • Arthur Mullard.
  • Newton Blick.
  • Nan Munro.

Idioma original: Inglés.





DVDRip VOS - AVI
detalles técnicos u otros: mostrar contenido
Video
ID : 0
Format : MPEG-4 Visual
Format profile : Advanced Simple@L5
Format settings, BVOP : 1
Format settings, QPel : No
Format settings, GMC : No warppoints
Format settings, Matrix : Default (MPEG)
Codec ID : XVID
Codec ID/Hint : XviD
Duration : 1h 36mn
Bit rate : 1 696 Kbps
Width : 640 pixels
Height : 384 pixels
Display aspect ratio : 1.667
Frame rate : 29.970 fps
Color space : YUV
Chroma subsampling : 4:2:0
Bit depth : 8 bits
Scan type : Progressive
Compression mode : Lossy
Bits/(Pixel*Frame) : 0.230
Stream size : 1.15 GiB (92%)
Writing library : XviD 1.1.2 (UTC 2006-11-01)

Audio
ID : 1
Format : MPEG Audio
Format version : Version 1
Format profile : Layer 3
Mode : Joint stereo
Mode extension : MS Stereo
Codec ID : 55
Codec ID/Hint : MP3
Duration : 1h 36mn
Bit rate mode : Constant
Bit rate : 128 Kbps
Channel(s) : 2 channels
Sampling rate : 48.0 KHz
Compression mode : Lossy
Stream size : 88.7 MiB (7%)
Alignment : Aligned on interleaves
Interleave, duration : 33 ms (1.00 video frame)
Interleave, preload duration : 504 ms
detalles técnicos u otros: mostrar contenido





Relacionado:





saludos



Volver a Largometrajes de ficción

Antes de empezar, un par de cosas:

Puedes usar las redes sociales para enterarte de las novedades o ayudarnos a difundir lo que encuentres.
Si ahora no te apetece, puedes hacerlo cuando quieras con los botones de arriba.

Facebook Twitter
Telegram YouTube

Sí, usamos cookies. Puedes ver para qué las usamos y cómo quitarlas o simplemente puedes aceptarlo.