RebeldeMule

La gran guerra (Mario Monicelli, 1959)

Drama, comedia, suspense; a veces a caballo entre la ficción y la realidad, pero siempre cine para pensar con sentido crítico lo social.
La gran guerra
La grande guerra
Mario Monicelli (Italia, Francia, 1959) [135 min]

Portada Portada
IMDb
(wikipedia | filmaffinity)


Sinopsis:

    [fuente] Es 1916, Primera Guerra Mundial. Oreste Jacovacci y Giovanni Busacca son dos jóvenes soldados que intentan sobrevivir en la guerra evitando el campo de batalla.

Vfoul, en "'La gran guerra', película incomprendida", en Filmaffinity, el 31 de julio de 2010, escribió:Uno de los hechos históricos menos tratados en la literatura y en el cine italiano fue todo lo ocurrido en la I Guerra Mundial, mientras en el resto de Europa y en Estados Unidos surgían documentales o libros de memorias sobre el conflicto bélico, en Italia reinaba el silencio. El motivo era muy simple: existía el convencimiento de que los seiscientos mil muertos de la Gran Guerra se podrían y habrían debido evitar; y cuando se supo que el excelente director Mario Monicelli preparaba un film, "La gran guerra", se inició una campaña total contra la película. Monicelli para conseguir su objetivo no sólo tuvo que luchar contra los medios y contra la censura, sino que además tuvo que defender el final de la misma, frente a las imposiciones de Dino De Laurentiis.

"La gran guerra" de Monicelli nació de una sinopsis de Luciano Vincenzoni titulada "Dos héroes", que más tarde Age y Scarpelli, junto con Monicelli, convirtieron en guión cinematográfico. Vicenzone se había basado en el cuento Les Amis (1883) de Guy de Maupassant, donde la acción está ambientada en el conflicto franco-prusiano. A diferencia del relato, la película de Monicelli amplia el universo de personajes a toda una tropa compuesta de campesinos, delincuentes, obreros y parias de la vida. Al frente de todos ellos encontramos a Vittorio Gassman y Alberto Sordi como auténticos protagonistas de un film coral, un verdadero fresco de la vida de la trinchera. Estos dos personajes serán el hilo conductor de ese retrato de la vida cotidiana de los soldados italianos en el frente. Dos pillos cobardes que entre lo satírico/trágico intentan escapar continuamente del peligro, pero cuya cobardía les llevará a encontrarse con el enemigo y ser confundidos como espías. Existe en el guión de "La gran guerra" una magnífica alternancia entre la comedia y el drama. De manera inteligente, los guionistas cortan los momentos cómicos, a veces de forma seca, con el anuncio de la tragedia; y las situaciones dramáticas se aligeran con la ironía y toque cómicos. La mayor parte de las veces la risa surge del más absoluto drama. No es un humor burdo y una risa fácil, sino un humor inteligente y de doble sentido. No hay frase que sea fruto de la casualidad: son frases muy estudiadas y llenas de significados. Quizás fueron esos diálogos y situaciones, los que no gustaban a la censura, que como en todas partes intentan cortar lo más significativo de la historia. [...]

José Francisco Montero, en Miradas de Cine, nº 56, noviembre de 2006, escribió:Mario Monicelli es probablemente el realizador más brillante de los pertenecientes a una generación de cineastas italianos que comienzan a trabajar en el cine algo después del final de la segunda guerra mundial —algo después, por tanto, del surgimiento del neorrealismo— y que se constituyen en impulsores de la comedia italiana que tan excelentes obras dio al cine italiano en las décadas de los 50 y 60. Ya sea desde este marco genérico, ya desde otros presupuestos creativos, como los representados por cineastas como Michelangelo Antonioni, Federico Fellini, Pier Paolo Pasolini o Valerio Zurlini, entre muchos otros, no se pretende tanto la superación de los postulados neorrealistas como un desarrollo de los mismos, dar una respuesta cinematográfica diferente a una situación histórica también bastante diferente, la de un país que se recompone tras los horrores del fascismo y la derrota bélica, que entra no sin cierta brusquedad en un rápido proceso de crecimiento económico y de trascendentales transformaciones sociales. En este contexto aparece "La gran guerra" (1959), una de las mejores muestras de la capacidad de Monicelli para combinar la comedia con altas dosis de profundidad en la crítica social, desplegando además una inusitada elegancia formal, lo que la convierten no sólo en la que probablemente es la más lograda obra de su autor, sino en una de las películas más señeras de esta época postneorrealista.

[...] El film está narrado en sucesivos episodios —introducidos por los versos iniciales de tristes canciones militares— en que los dos desgraciados protagonistas, los soldados Oreste Jacovacci (Alberto Sordi) y Giovanni Busacca (Vittorio Gassman), viven diferentes aventuras provocadas por sus deseos de librarse de los peligros de la contienda —reforzando con esta estructura episódica el ya evidente paralelismo de "La gran guerra" con la literatura picaresca—, trazando su argumento un recorrido fatídico que, coherentemente con el implacable discurso antimilitarista del film, lleva de la oficina de reclutamiento a la muerte.


Ficha técnica


Reparto:


Idioma original: Italiano.





Secuencias






DVDRip VOS - AVI
detalles técnicos u otros: mostrar contenido
lawrence, en DXC, escribió:Alguna consideración sobre el Aspect Ratio: el DVD que ha caído en mis manos es digno de la peor Suevia, de PVB Editions. Aunque en teoría es un Cinemascope, la realidad es que tiene recortados ambos lados, y una vez recortados, se reconvierte (sic) en cinemascope, con el consiguiente molesto achatamiento.

Para colmo, la imagen del DVD proviene de un VHS. He rehecho la imagen a unas proporciones más adecuadas a la vista.





DVDRip VOS - AVI (cortesía del compañero marlowe62; v. aquí)
detalles técnicos u otros: mostrar contenido
Datos técnicos:
** DVDRip VO / XviD / Ac3 2.0 / 720x320 (2.25:1) / 131 m. / 25 fps **

Código: Seleccionar todo
General
    Format : AVI
    Format/Info : Audio Video Interleave
    File size : 1.45 GiB
    Duration : 2h 11mn
    Overall bit rate : 1 570 Kbps
    Writing application : VirtualDubMod 1.5.10.2 (build 2540/release)
    Writing library : VirtualDubMod build 2540/release

    Video
    ID : 0
    Format : MPEG-4 Visual
    Format profile : Advanced Simple@L5
    Format settings, BVOP : 2
    Format settings, QPel : No
    Format settings, GMC : No warppoints
    Format settings, Matrix : Default (MPEG)
    Codec ID : XVID
    Codec ID/Hint : XviD
    Duration : 2h 11mn
    Bit rate : 1 371 Kbps
    Width : 720 pixels
    Height : 320 pixels
    Display aspect ratio : 2.25:1
    Frame rate : 25.000 fps
    Color space : YUV
    Chroma subsampling : 4:2:0
    Bit depth : 8 bits
    Scan type : Progressive
    Compression mode : Lossy
    Bits/(Pixel*Frame) : 0.238
    Stream size : 1.26 GiB (87%)
    Writing library : XviD 1.1.0 (UTC 2005-11-22)

    Audio
    ID : 1
    Format : AC-3
    Format/Info : Audio Coding 3
    Mode extension : CM (complete main)
    Codec ID : 2000
    Duration : 2h 11mn
    Bit rate mode : Constant
    Bit rate : 192 Kbps
    Channel(s) : 2 channels
    Channel positions : Front: L R
    Sampling rate : 48.0 KHz
    Bit depth : 16 bits
    Compression mode : Lossy
    Stream size : 181 MiB (12%)
    Alignment : Split accross interleaves
    Interleave, duration : 96 ms (2.40 video frames)
    Interleave, preload duration : 96 ms





DVDRip VOS - MKV (cortesía del compañero marlowe62; v. aquí)
detalles técnicos u otros: mostrar contenido
Datos técnicos:
** DVDRip VO+Subs / AC3 5.1 / 716x448 anamórfico --> (2.272) / 02:12:00 (132 m.) **
Código: Seleccionar todo
General           : La Grande Guerra.mkv
Format            : Matroska at 2 408 Kbps
Length            : 2.22 GiB for 2h 11mn 59s 904ms

Video #0          : AVC at 1 950 Kbps
Aspect            : 716 x 448 (2.272) at 25.000 fps

Audio #0          : AC-3 at 448 Kbps
Infos             : 6 channels, 48.0 KHz
Language          : it

Text #0           : VobSub
Language          : it

Text #1           : VobSub
Language          : es

Text #2           : VobSub
Language          : en

Text #3           : VobSub
Language          : pt
 
Language: Italian
Subtitles: Italian, English, Spanish, Portuguese





DVDRip Dual - MKV (x264-AC3) (fuente)
detalles técnicos u otros: mostrar contenido
General
Unique ID : 201677432580999958939528626174096552895 (0x97B9A92074B97CBA92B7DBBD5B8BB3BF)
Complete name : La.Grande.Guerra.DVDRip.Dual.(Italian.Spanish..Spanishsub.Englishsub..Italiansub).DVD-Rip.x264-AC3.by.CC-VTG.mkv
Format : Matroska
Format version : Version 4
File size : 2.34 GiB
Duration : 2 h 11 min
Overall bit rate : 2 534 kb/s
Encoded date : UTC 2018-11-14 07:46:25
Writing application : mkvmerge v7.6.0 ('Garden of Dreams') 32bit built on Feb 8 2015 12:51:39
Writing library : libebml v1.3.1 + libmatroska v1.4.2

Video
ID : 1
Format : AVC
Format/Info : Advanced Video Codec
Format profile : High@L3
Format settings : CABAC / 6 Ref Frames
Format settings, CABAC : Yes
Format settings, RefFrames : 6 frames
Codec ID : V_MPEG4/ISO/AVC
Duration : 2 h 11 min
Bit rate : 1 950 kb/s
Width : 716 pixels
Height : 448 pixels
Display aspect ratio : 2.25:1
Original display aspect ratio : 2.25:1
Frame rate mode : Constant
Frame rate : 25.000 FPS
Color space : YUV
Chroma subsampling : 4:2:0
Bit depth : 8 bits
Scan type : Progressive
Bits/(Pixel*Frame) : 0.243
Stream size : 1.80 GiB (77%)
Writing library : x264 core 130 r2273 b3065e6
Encoding settings : cabac=1 / ref=6 / deblock=1:-3:-3 / analyse=0x3:0x133 / me=umh / subme=11 / psy=1 / psy_rd=1.00:0.20 / mixed_ref=1 / me_range=24 / chroma_me=1 / trellis=2 / 8x8dct=1 / cqm=0 / deadzone=21,11 / fast_pskip=1 / chroma_qp_offset=-3 / threads=18 / lookahead_threads=2 / sliced_threads=0 / nr=0 / decimate=1 / interlaced=0 / bluray_compat=0 / constrained_intra=0 / bframes=5 / b_pyramid=2 / b_adapt=2 / b_bias=0 / direct=1 / weightb=1 / open_gop=0 / weightp=2 / keyint=250 / keyint_min=25 / scenecut=40 / intra_refresh=0 / rc_lookahead=50 / rc=2pass / mbtree=1 / bitrate=1950 / ratetol=1.0 / qcomp=0.60 / qpmin=0 / qpmax=69 / qpstep=4 / cplxblur=20.0 / qblur=0.5 / ip_ratio=1.40 / aq=1:1.00
Language : English
Default : Yes
Forced : No
Color range : Limited
Color primaries : BT.601 PAL
Transfer characteristics : BT.709
Matrix coefficients : BT.601

Audio #1
ID : 2
Format : AC-3
Format/Info : Audio Coding 3
Commercial name : Dolby Digital
Codec ID : A_AC3
Duration : 2 h 11 min
Bit rate mode : Constant
Bit rate : 448 kb/s
Channel(s) : 6 channels
Channel layout : L R C LFE Ls Rs
Sampling rate : 48.0 kHz
Frame rate : 31.250 FPS (1536 SPF)
Bit depth : 16 bits
Compression mode : Lossy
Stream size : 423 MiB (18%)
Language : Italian
Service kind : Complete Main
Default : Yes
Forced : No

Audio #2
ID : 3
Format : AC-3
Format/Info : Audio Coding 3
Commercial name : Dolby Digital
Codec ID : A_AC3
Duration : 2 h 11 min
Bit rate mode : Constant
Bit rate : 128 kb/s
Channel(s) : 2 channels
Channel layout : L R
Sampling rate : 44.1 kHz
Frame rate : 28.711 FPS (1536 SPF)
Bit depth : 16 bits
Compression mode : Lossy
Stream size : 121 MiB (5%)
Language : Spanish
Service kind : Complete Main
Default : No
Forced : No

Text #1
ID : 4
Format : VobSub
Muxing mode : zlib
Codec ID : S_VOBSUB
Codec ID/Info : Picture based subtitle format used on DVDs
Duration : 2 h 11 min
Bit rate : 1 959 b/s
Count of elements : 1325
Stream size : 1.85 MiB (0%)
Language : Italian
Default : No
Forced : No

Text #2
ID : 5
Format : VobSub
Muxing mode : zlib
Codec ID : S_VOBSUB
Codec ID/Info : Picture based subtitle format used on DVDs
Duration : 2 h 8 min
Bit rate : 2 169 b/s
Count of elements : 1479
Stream size : 2.00 MiB (0%)
Language : Spanish
Default : No
Forced : No

Text #3
ID : 6
Format : VobSub
Muxing mode : zlib
Codec ID : S_VOBSUB
Codec ID/Info : Picture based subtitle format used on DVDs
Duration : 2 h 8 min
Bit rate : 1 787 b/s
Count of elements : 1269
Stream size : 1.64 MiB (0%)
Language : English
Default : No
Forced : No

Menu
00:00:00.000 : en:Chapter 1
00:02:07.880 : en:Chapter 2
00:09:12.080 : en:Chapter 3
00:12:46.280 : en:Chapter 4
00:16:42.200 : en:Chapter 5
00:22:39.680 : en:Chapter 6
00:34:09.440 : en:Chapter 7
00:40:07.040 : en:Chapter 8
00:43:50.120 : en:Chapter 9
00:53:51.920 : en:Chapter 10
00:59:06.680 : en:Chapter 11
01:04:05.960 : en:Chapter 12
01:07:07.520 : en:Chapter 13
01:10:08.720 : en:Chapter 14
01:16:21.920 : en:Chapter 15
01:20:41.240 : en:Chapter 16
01:25:12.680 : en:Chapter 17
01:31:08.240 : en:Chapter 18
01:35:11.840 : en:Chapter 19
01:40:20.960 : en:Chapter 20
01:46:08.480 : en:Chapter 21
01:51:10.400 : en:Chapter 22
01:55:13.880 : en:Chapter 23
02:03:22.280 : en:Chapter 24





:str: Reproducción:



[ Add all 4 links to your ed2k client ]

[Editado por el comité de RBM para incluir los enlaces en el primer mensaje. Muchas gracias, compañero marlowe62.]


Salud.



Volver a Largometrajes de ficción

Antes de empezar, un par de cosas:

Puedes usar las redes sociales para enterarte de las novedades o ayudarnos a difundir lo que encuentres.
Si ahora no te apetece, puedes hacerlo cuando quieras con los botones de arriba.

Facebook Twitter
Telegram YouTube

Sí, usamos cookies. Puedes ver para qué las usamos y cómo quitarlas o simplemente puedes aceptarlo.