RebeldeMule

A sangre y espada (Igor Savchenko, 1941)

Drama, comedia, suspense; a veces a caballo entre la ficción y la realidad, pero siempre cine para pensar con sentido crítico lo social.
A sangre y espada
Bogdan Khmelnitskiy / Богдан Хмельницкий
Igor Savchenko (URSS, 1941) [108 min]

Portada Portada
IMDb
(wikipedia | filmaffinity)


Sinopsis:

    Siglo XVII. Ucrania se encuentra bajo el yugo de la mancomunidad polaco-lituana. Hay guerra casi constante entre tártaros, polacos y cosacos durante décadas. El hetman de Zaporozhia, Bohdán Jmelnytsky, se rebela contra el Estado y sus terratenientes (1648-1654), dando lugar a la creación de un estado cosaco.

    Comienzo del Ciclo Épico de películas Soviéticas (años 30-40 y 50).

Comentario personal:

    Como ya comenté, estoy transcribiendo a un cinéfilo ruso películas españolas y él me está transcribiendo estas películas rusas. Está siendo mucho trabajo, pero merece mucho la pena. Son todas grandes películas. Más adelante estarán Stepan Razin, Georgi Saakadze, Suvorov, etc. primorufus me ha ayudado en varias transcripciones. Muchas gracias, primorufus.

    Muchas gracias a Galina, que ha traducido los subtítulos del ruso.
    Que va a seguir ayudando y que gracias a ella, todos podamos ver estas películas inéditas para los hispanohablantes.

Ficha técnica

    Guión: Aleksandr Kornejchuk.
    Música: Sergei Pototsky.
    Fotografía: Yuri Yekelchik (B&W).
    Productora: Kievskaya Kinostudiya (Kiev Film Studio).

Reparto:

    Nikolai Mordvinov (Hetman Bogdan Zinovy Khmelnitsky), Boris Bezgin (Ivan Bogun), Nikita Ilchenko (Maksim Krivonos), Mikhail Zharov (Fr. Gavrilo), Rostislav Ivitsky (Cossack Tur), Anton Dunajsky (Cossack Shaytan).




DVDRip VOS - AVI
detalles técnicos u otros: mostrar contenido
General
Complete name : Bogdan.Hmelnickij.1941 traduccion español Galina.avi
Format : AVI
Format/Info : Audio Video Interleave
File size : 1.45 GiB
Duration : 1h 48mn
Overall bit rate : 1 914 Kbps
Writing application : VirtualDubMod 1.5.10.2 (build 2540/release)
Writing library : VirtualDubMod build 2540/release

Video
ID : 0
Format : MPEG-4 Visual
Format profile : Advanced Simple@L5
Format settings, BVOP : 1
Format settings, QPel : No
Format settings, GMC : No warppoints
Format settings, Matrix : Default (H.263)
Codec ID : XVID
Codec ID/Hint : XviD
Duration : 1h 48mn
Bit rate : 1 520 Kbps
Width : 704 pixels
Height : 544 pixels
Display aspect ratio : 1.294
Frame rate : 25.000 fps
Color space : YUV
Chroma subsampling : 4:2:0
Bit depth : 8 bits
Scan type : Progressive
Compression mode : Lossy
Bits/(Pixel*Frame) : 0.159
Stream size : 1.15 GiB (79%)
Writing library : XviD 1.2.1 (UTC 2008-12-04)

Audio
ID : 1
Format : AC-3
Format/Info : Audio Coding 3
Mode extension : CM (complete main)
Codec ID : 2000
Duration : 1h 48mn
Bit rate mode : Constant
Bit rate : 384 Kbps
Channel(s) : 2 channels
Channel positions : Front: L R
Sampling rate : 48.0 KHz
Bit depth : 16 bits
Compression mode : Lossy
Stream size : 297 MiB (20%)
Alignment : Split accross interleaves
Interleave, duration : 40 ms (1.00 video frame)
Interleave, preload duration : 500 ms


Nota Mar Feb 19, 2013 8:10 pm
¡¡¡Ahora todo el mundo sabrá cómo eran los cosacos!!! :roll:

Nota Mar Feb 19, 2013 9:27 pm
GRACIAS!!!!

Nota Mié Feb 20, 2013 11:23 am
Como no encontraba ninguna fuente para el emule he buscado y encontrado un torrent que baja bastante bien aquí.

[Editado por el comité de RBM para incluir el enlace en el primer mensaje. Muchas gracias, compañero Piramo.]

Los subtítulos de Galina encajan bien pero no es el mismo archivo de la mula. Una vez más muchas gracias a Galina y trajano
Pongo también la portada en el primer mensaje.

Nota Mié Feb 20, 2013 3:03 pm
Hola! nos colocariais una copia del archivo y un enlace para la mula para los torrentescépticos? gracias!

Nota Mié Feb 20, 2013 9:43 pm
Soy la unica fuente y por eso si me voy esta en rojo.
Aunque el compañero ya ha puesto un torrent, me he acordado de donde baje el mio.
Aqui esta en Kinozal: http://kinozal.tv/details.php?id=661308


Volver a Largometrajes de ficción

Antes de empezar, un par de cosas:

Puedes usar las redes sociales para enterarte de las novedades o ayudarnos a difundir lo que encuentres.
Si ahora no te apetece, puedes hacerlo cuando quieras con los botones de arriba.

Facebook Twitter
Telegram YouTube

Sí, usamos cookies. Puedes ver para qué las usamos y cómo quitarlas o simplemente puedes aceptarlo.