RebeldeMule

El Havre (Aki Kaurismäki, 2011)

Drama, comedia, suspense; a veces a caballo entre la ficción y la realidad, pero siempre cine para pensar con sentido crítico lo social.
El Havre
Le Havre
Aki Kaurismäki (Finlandia, Francia, Alemania, 2011) [93 min]

Portada
IMDb
(wikipedia | filmaffinity)


Sinopsis:

    Marcel Marx, famoso escritor bohemio, se ha exiliado voluntariamente y se ha establecido en la ciudad portuaria de Le Havre (Francia), donde vive satisfecho trabajando como limpiabotas, porque así se siente más cerca de la gente. Tras renunciar a sus ambiciones literarias, su vida se desarrolla sin sobresaltos entre el bar de la esquina, su trabajo y su mujer Arletty; pero, cuando se cruza en su camino un niño negro inmigrante, tendrá que luchar contra los fríos y ciegos mecanismos del Estado, armado únicamente con su optimismo y con la incondicional solidaridad de los vecinos del barrio, para evitar que su protegido caiga en manos de la policía.

Ficha técnica

    Guión: Aki Kaurismäki.
    Fotografía: Timo Salminen.
    Productora: Janus Films / Pandora Filmproduktion / Pyramide Productions / Sputnik.

Reparto:

    André Wilms, Kati Outinen, Jean-Pierre Darroussin, Blondin Miguel, Elina Salo, Evelyne Didi, Quoc Dung Nguyen, Laïka, François Monnié, Little Bob, Pierre Étaix, Jean-Pierre Léaud, Vincent Lebodo, Umban U'kset, Patrick Bonnel.

Idioma original: Francés.





DVDRip VOS (fuente)
detalles técnicos u otros: mostrar contenido
Datos del archivo:
Idioma: Francés con subs en español (srt)
Calidad: DVDRip
Resolución: 720x400
Formato: avi
Tamaño: 700 mb

    :down: Descarga directa: Mega [700 Mb] (contraseña: PgM)

    :sub: Subtítulos: castellano




DVDRip VE





DVDRip Dual - AVI





HDRip 720p Dual - AVI
detalles técnicos u otros: mostrar contenido
General
Formato : AVI
Formato/Info : Audio Video Interleave
Formato del perfil : OpenDML
Tamaño del archivo : 1,99GIB
Duración : 1h 29min.
Tasa de bits total : 3 185Kbps
Aplicación de codifición : VirtualDubMod 1.5.10.2 (build 2540/release)
Librería de codificación : VirtualDubMod build 2540/release

Video
ID : 0
Formato : MPEG-4 Visual
Formato del perfil : Advanced Simple@L5
Ajustes del formato, BVOP : 2
Ajustes del formato, Qpel : No
Ajustes del formato, GMC : No warppoints
Ajustes del formato, Matrix : Default (MPEG)
ID Códec : XVID
ID Códec/Pista : XviD
Duración : 1h 29min.
Tasa de bits : 2 270Kbps
Ancho : 720pixeles
Alto : 384pixeles
Relación de aspecto : 1,85:1
Velocidad de cuadro : 25,000fps
ColorSpace : YUV
ChromaSubsampling : 4:2:0
BitDepth/String : 8bits
Tipo de exploración : Progresivo
Bits/(Pixel*cuadro) : 0.328
Tamaño de pista : 1,42GIB (71%)
Librería de codificación : XviD 1.2.1 (UTC 2008-12-04)

Audio #1
ID : 1
Formato : AC-3
Formato/Info : Audio Coding 3
Format_Settings_ModeExtension : CM (complete main)
Ajustes del formato, Endianness : Big
ID Códec : 2000
Duración : 1h 29min.
Tipo de tasa de bits : Constante
Tasa de bits : 448Kbps
Canal(es) : 6canales
Posiciones del canal : Front: L C R, Side: L R, LFE
Velocidad de muestreo : 48,0KHz
BitDepth/String : 16bits
Tamaño de pista : 287MB (14%)
Alineación : Dividir a través entrelazado
Entrelazado, duración : 40 ms (1,00fotograma de video)
Entrelazado, duración de precarga : 500 ms

Audio #2
ID : 2
Formato : AC-3
Formato/Info : Audio Coding 3
Format_Settings_ModeExtension : CM (complete main)
Ajustes del formato, Endianness : Big
ID Códec : 2000
Duración : 1h 29min.
Tipo de tasa de bits : Constante
Tasa de bits : 448Kbps
Canal(es) : 6canales
Posiciones del canal : Front: L C R, Side: L R, LFE
Velocidad de muestreo : 48,0KHz
BitDepth/String : 16bits
Tamaño de pista : 287MB (14%)
Alineación : Dividir a través entrelazado
Entrelazado, duración : 40 ms (1,00fotograma de video)
Entrelazado, duración de precarga : 500 ms





BDRip HD 720p VOS (versión Criterion) - MKV (cortesía del compañero marlowe62; v. aquí)
detalles técnicos u otros: mostrar contenido
Datos técnicos:
** versión Criterion 720p VO+SI (VobSub/PGS) / AC3 5.1 / 1280x688 (1.85:1 / 1.860) / 93 m. / Menú **
## Le.Havre.2011.720p.BluRay.CRITERION.x264-PublicHD.mkv [3.91 Gb] ##
** IMDB AR 1.85:1 **
detalles técnicos u otros: mostrar contenido
Código: Seleccionar todo
General
Complete name                            : le.havre.2011.720p.bluray.criterion.x264-publichd.mkv
Format                                   : Matroska
Format version                           : Version 2
File size                                : 3.91 GiB
Duration                                 : 1h 33mn
Overall bit rate                         : 5 963 Kbps
Encoded date                             : UTC 2012-08-07 20:34:00
Writing application                      : mkvmerge v5.7.0 ('The Whirlwind') built on Jul  8 2012 20:08:51
Writing library                          : libebml v1.2.3 + libmatroska v1.3.0

Video
ID                                       : 1
Format                                   : AVC
Format/Info                              : Advanced Video Codec
Format profile                           : High@L4.1
Format settings, CABAC                   : Yes
Format settings, ReFrames                : 8 frames
Codec ID                                 : V_MPEG4/ISO/AVC
Duration                                 : 1h 33mn
Bit rate                                 : 5 422 Kbps
Width                                    : 1 280 pixels
Height                                   : 688 pixels
Display aspect ratio                     : 1.85:1
Frame rate mode                          : Constant
Frame rate                               : 23.976 fps
Color space                              : YUV
Chroma subsampling                       : 4:2:0
Bit depth                                : 8 bits
Scan type                                : Progressive
Bits/(Pixel*Frame)                       : 0.257
Stream size                              : 3.41 GiB (87%)
Writing library                          : x264 core 125 r2200 999b753
Encoding settings                        : cabac=1 / ref=9 / deblock=1:-3:-3 / analyse=0x3:0x133 / me=umh / subme=9 / psy=1 / psy_rd=1.00:0.15 / mixed_ref=1 / me_range=24 / chroma_me=1 / trellis=2 / 8x8dct=1 / cqm=0 / deadzone=21,11 / fast_pskip=1 / chroma_qp_offset=-3 / threads=12 / lookahead_threads=2 / sliced_threads=0 / nr=0 / decimate=1 / interlaced=0 / bluray_compat=0 / constrained_intra=0 / bframes=5 / b_pyramid=1 / b_adapt=2 / b_bias=0 / direct=3 / weightb=1 / open_gop=0 / weightp=2 / keyint=240 / keyint_min=23 / scenecut=40 / intra_refresh=0 / rc_lookahead=60 / rc=abr / mbtree=1 / bitrate=5422 / ratetol=1.0 / qcomp=0.60 / qpmin=0 / qpmax=69 / qpstep=4 / ip_ratio=1.40 / aq=1:1.00
Language                                 : French
Default                                  : Yes
Forced                                   : No

Audio
ID                                       : 2
Format                                   : AC-3
Format/Info                              : Audio Coding 3
Mode extension                           : CM (complete main)
Format settings, Endianness              : Big
Codec ID                                 : A_AC3
Duration                                 : 1h 33mn
Bit rate mode                            : Constant
Bit rate                                 : 640 Kbps
Channel(s)                               : 6 channels
Channel positions                        : Front: L C R, Side: L R, LFE
Sampling rate                            : 48.0 KHz
Bit depth                                : 16 bits
Compression mode                         : Lossy
Stream size                              : 430 MiB (11%)
Language                                 : French
Default                                  : Yes
Forced                                   : No

Text #1
ID                                       : 3
Format                                   : VobSub
Codec ID                                 : S_VOBSUB
Codec ID/Info                            : The same subtitle format used on DVDs
Language                                 : English
Default                                  : Yes
Forced                                   : No

Text #2
ID                                       : 4
Format                                   : PGS
Codec ID                                 : S_HDMV/PGS
Codec ID/Info                            : The same subtitle format used on BDs/HD-DVDs
Language                                 : English
Default                                  : No
Forced                                   : No

Menu
00:00:00.000                             : en:00:00:00.000
00:05:08.141                             : en:00:05:08.141
00:08:06.444                             : en:00:08:06.444
00:10:03.728                             : en:00:10:03.728
00:11:44.704                             : en:00:11:44.704
00:15:27.343                             : en:00:15:27.343
00:18:18.389                             : en:00:18:18.389
00:21:57.900                             : en:00:21:57.900
00:24:36.016                             : en:00:24:36.016
00:27:22.641                             : en:00:27:22.641
00:30:11.059                             : en:00:30:11.059
00:33:17.996                             : en:00:33:17.996
00:35:40.180                             : en:00:35:40.180
00:39:47.135                             : en:00:39:47.135
00:44:27.248                             : en:00:44:27.248
00:47:58.125                             : en:00:47:58.125
00:50:54.468                             : en:00:50:54.468
00:53:29.498                             : en:00:53:29.498
00:59:31.276                             : en:00:59:31.276
01:03:36.855                             : en:01:03:36.855
01:08:11.087                             : en:01:08:11.087
01:10:34.021                             : en:01:10:34.021
01:14:56.033                             : en:01:14:56.033
01:19:55.582                             : en:01:19:55.582
01:23:31.256                             : en:01:23:31.256
01:26:53.834                             : en:01:26:53.834
01:30:27.422                             : en:01:30:27.422





BDRip VOS - MKV (cortesía del compañero marlowe62; v. aquí)
detalles técnicos u otros: mostrar contenido
Datos técnicos:
** Pyramide Vidéo (2012) / 1.85:1 / 93 m. **
** BRRip VO+SI+SCh / 848x456 (1.860) / 93 m. **
detalles técnicos u otros: mostrar contenido
Código: Seleccionar todo
    General
    Complete name                    : Le.Havre.2011.BD.MiniSD-TLF.mkv
    Format                           : Matroska
    Format version                   : Version 2
    File size                        : 577 MiB
    Duration                         : 1h 29mn
    Overall bit rate                 : 899 Kbps
    Encoded date                     : UTC 2012-03-14 06:49:27
    Writing application              : mkvmerge v5.3.0 ('I could have danced') built on Feb  9 2012 10:38:07
    Writing library                  : libebml v1.2.3 + libmatroska v1.3.0

    Video
    ID                               : 1
    Format                           : AVC
    Format/Info                      : Advanced Video Codec
    Format profile                   : High@L3.1
    Format settings, CABAC           : Yes
    Format settings, ReFrames        : 10 frames
    Codec ID                         : V_MPEG4/ISO/AVC
    Duration                         : 1h 29mn
    Nominal bit rate                 : 836 Kbps
    Width                            : 848 pixels
    Height                           : 456 pixels
    Display aspect ratio             : 1.860
    Frame rate mode                  : Variable
    Frame rate                       : 25.000 fps
    Color space                      : YUV
    Chroma subsampling               : 4:2:0
    Bit depth                        : 8 bits
    Scan type                        : Progressive
    Bits/(Pixel*Frame)               : 0.086
    Title                            : SOURCE:Le.Havre.2011.Blu-ray.720p.x264.DTS(Fre)-MySiLU
    Writing library                  : x264 core 120 r2148+641+27 e2bd7d7 tMod [8-bit@4:2:0 X86]
    Encoding settings                : cabac=1 / ref=10 / deblock=1:-2:-1 / analyse=0x3:0x113 / me=tesa / subme=11 / psy=1 / fade_compensate=0.00 / psy_rd=1.10:0.08 / mixed_ref=1 / me_range=16 / chroma_me=1 / trellis=2 / 8x8dct=1 / cqm=0 / deadzone=21,11 / fast_pskip=1 / chroma_qp_offset=-3 / threads=9 / sliced_threads=0 / nr=0 / decimate=1 / interlaced=0 / bluray_compat=0 / constrained_intra=0 / fgo=0 / bframes=10 / b_pyramid=2 / b_adapt=2 / b_bias=0 / direct=3 / weightb=1 / open_gop=0 / weightp=2 / keyint=250 / keyint_min=25 / scenecut=40 / intra_refresh=0 / rc_lookahead=60 / rc=2pass / mbtree=1 / bitrate=836 / ratetol=1.0 / qcomp=0.70 / qpmin=0 / qpmax=69 / qpstep=4 / cplxblur=20.0 / qblur=0.5 / ip_ratio=1.40 / aq=1:1.00
    Default                          : Yes
    Forced                           : No

    Audio
    ID                               : 2
    Format                           : AAC
    Format/Info                      : Advanced Audio Codec
    Format profile                   : HE-AAC / LC
    Codec ID                         : A_AAC
    Duration                         : 1h 29mn
    Channel(s)                       : 2 channels
    Channel positions                : Front: L R
    Sampling rate                    : 48.0 KHz / 24.0 KHz
    Compression mode                 : Lossy
    Delay relative to video          : 31ms
    Title                            : AAC2.0 Fre/Fin
    Default                          : Yes
    Forced                           : No

    Text #1
    ID                               : 3
    Format                           : UTF-8
    Codec ID                         : S_TEXT/UTF8
    Codec ID/Info                    : UTF-8 Plain Text
    Title                            : chs
    Language                         : Chinese
    Default                          : Yes
    Forced                           : No

    Text #2
    ID                               : 4
    Format                           : UTF-8
    Codec ID                         : S_TEXT/UTF8
    Codec ID/Info                    : UTF-8 Plain Text
    Title                            : cht
    Language                         : Chinese
    Default                          : No
    Forced                           : No

    Text #3
    ID                               : 5
    Format                           : UTF-8
    Codec ID                         : S_TEXT/UTF8
    Codec ID/Info                    : UTF-8 Plain Text
    Title                            : big5
    Language                         : Chinese
    Default                          : No
    Forced                           : No

    Text #4
    ID                               : 6
    Format                           : UTF-8
    Codec ID                         : S_TEXT/UTF8
    Codec ID/Info                    : UTF-8 Plain Text
    Title                            : eng
    Language                         : English
    Default                          : No
    Forced                           : No

    Menu
    00:00:00.097                     : en:00:00:00.097



[ Add all 6 links to your ed2k client ]

Imagen

Le Havre

(El Havre / El Havre: el puerto de la esperanza / Miracolo a Le Havre)

(Finlandia-Francia-RFA, 2011) [Color, 93 m.].
Género: Comedia dramática, Drama social / Inmigración.

Imagen

Ficha técnica.
Dirección: Aki Kaurismäki.
Guión: Aki Kaurismäki.
Fotografía: Timo Salminen (Color).
Música: varios
Producción: Aki Kaurismäki, Karl Baumgartner, Reinhard Brundig, Fabienne Vonier, Hanna Hemilä.
Productora: Sputnik (Sputnik Oy) / Pyramide Productions / Pandora Filmproduktion (Pandora Film) /
arte France Cinéma/ ZDF/Arte / The Finnish Film Foundation / Canal+ / Nordisk Film- & TV-Fond / Centre National de la Cinématographie (CNC) / Yleisradio (YLE) (YLE Coproductions) / CinéCinéma / Arte France.

Premios:
- 2011: Premios Cesar: 3 nominaciones: mejor película, director y diseño de producción
- 2011: Festival de Cannes: Premio FIPRESCI. Sección oficial a concurso
- 2011: Premios del Cine Europeo: 4 nominaciones, incluyendo mejor película
- 2011: Critics Choice Awards: Nominada a Mejor película extranjera
- 2011: Satellite Awards: Nominada a Mejor película de habla no inglesa


Reparto: André Wilms (Marcel Marx), Kati Outinen (Arletty), Jean-Pierre Darroussin (Monet), Blondin Miguel (Idrissa), Elina Salo (Claire), Evelyne Didi (Yvette), Quoc Dung Nguyen (Chang), Laika (Laika), François Monnie (L'épicier), Roberto Piazza (Little Bob), Pierre Etaix (Docteur Becker), Jean-Pierre Léaud (Dénonciateur), Jérôme Boyer (Capitaine de Police/Frontières), Stéphane Livonnen (Pilier bar La Moderne).

Sinopsis: Marcel Marx, famoso escritor bohemio, se ha exiliado voluntariamente y se ha establecido en la ciudad portuaria de Le Havre (Francia), donde vive satisfecho trabajando como limpiabotas, porque así se siente más cerca de la gente. Tras renunciar a sus ambiciones literarias, su vida se desarrolla sin sobresaltos entre el bar de la esquina, su trabajo y su mujer Arletty; pero, cuando se cruza en su camino un niño negro inmigrante, tendrá que luchar contra los fríos y ciegos mecanismos del Estado, armado únicamente con su optimismo y con la incondicional solidaridad de los vecinos del barrio, para evitar que su protegido caiga en manos de la policía. (FILMAFFINITY)
----------------------------------------
"Kaurismäki regala otra de sus divertidísimas disecciones del frío. (...) Un lúcido alegato contra la hipocresía sin alegato y sin hipocresía. (...) Tan brillante como genial." (Luis Martínez: Diario El Mundo)
----------------------------------------
"Un encanto y una gracia notables. (...) El tiempo se te hace muy corto y abandonas la sala con una agradecida sonrisa. Los presuntos marcianos de Kaurismäki están llenos de vida." (Carlos Boyero: Diario El País)
----------------------------------------
"Kaurismäki logra la máxima depuración de su identidad estilística (...) Una obra maestra que parece preferir no ser considerada como tal" (Jordi Costa: Diario El País)
----------------------------------------
"Kaurismäki echa mano de su distanciado recetario humorístico y compone una obra locuaz y colorista, de trazos limpios y giros transparentes (...) Puntuación: **** (sobre 5)" (Manuel Yáñez Murillo: Fotogramas)
----------------------------------------
Solo en Francia podía rodar Kaurismaki este conmovedor homenaje a la rama más lacónica, poética, romántica y elegante del cine galo: Bresson, Carné, Tati, Melville, Becker pasean por los bellísimos fotogramas –y por los nombres de los protagonistas- de esta obra maestra de la puesta en escena, la economía expresiva, la composición del plano, la precisión en el montaje, la transparencia narrativa y el dibujo de personajes. La película desarma al espectador con la sencillez y honestidad con que aborda su improbable trama, lo seduce con su peculiar combinación de comedia y tragedia contenidas, marca de la casa, y acaba conmoviéndolo con un final digno de un Dreyer con menos fe y más conciencia de clase. La mejor película hasta la fecha del simpar finlandés demuestra una vez más que, en el Arte en general, el realismo no es sino un estorbo a la hora de aprehender y diseccionar la realidad; y que, en el cine en particular, la conciencia social no es necesariamente sinónimo de sensiblería. Magistral. (Daniel Andreas: FILMAFFINITY)

Marcel (André Wilms) es un escritor bohemio retirado que vive exiliado en La Haya, trabajando como limpiabotas, un empleo que cree se encuentra en aras de extinguirse y que le proporciona más bien pocas alegrías. Su situación económica no es buena, debe dinero y pide constantemente préstamos. Sin embargo, cada noche llega a casa tras tomar unas copas y su mujer, Arletty (Kati Outinen), le ha preparado la cena. Cuando Arletty cae gravemente enferma y deba ser ingresa en el hospital, la vida de Marcel, entonces, quedará totalmente trastocada. A esta situación de inestabilidad se suma la acogida por parte de Marcel de un joven africano, a quien encuentra en la calle, desnutrido, sin nada, siendo perseguido por ser ilegal en el país y buscando la manera de poder marchar a Londres a reunirse con su familia. Marcel le acogerá en su casa aunque tendrá que lidiar con la presencia de un detective (Jean-Pierre Darroussin), quien está detrás del niño mientras espera saber qué sucederá finalmente con su esposa enferma. (SensaCine)

André Wilms y Marcel Marx vuelven a la vida después de transitar las imágenes enblanco y negro de "La vida de bohemia", el filme rodado por Aki Kaurismäki en 1992.El actor André Wilms es una presencia recurrente en la obra del cineasta finlandés, pero en aquella película centrada en la relación entre un escritor francés frustrado, un compositor irlandés sin suerte y un artista albanés indocumentado, encarnó al primero de estos tres personajes, alguien que acepta su destino a la manera bohemia de entender la vida y se gana unos cuantos francos recogiendo botellas vacías.
No ha cambiado mucho su suerte casi dos décadas después. El Marcel Marx de 'LeHavre', bajo el rostro igual de cansado e igual de lúcido de Wilms, sigue en el mismo estado bohemio en el que fue dejado tantos años atrás. Ahora vive en Le Havre, ciudad portuaria, centro neurálgico normando. No recoge botellas de cristal sino que se gana el sustento como limpiabotas, que es un trabajo que le permite sentirse cerca del pueblo, de los suyos, y no habita solo o en compañía de otros como él, sino que se ha casado con una enfermera a la que da vida la antigua y memorable chica de la fábrica de cerillas, Kati Outinen.
Las películas de Kaurismäki remiten unas a otras, como ocurre con todos los grandes,con Bergman y Ford, con Hitchcock y Hawks, con Vidor y Chaplin, con Lynch y Godard, con Ray y Eustache, con Ozu y Jarmusch. Así que el carácter efusivo de (solo) algunos momentos de "La vida de bohemia", filtrado por la nueva luminosidad plásticay afectiva que surge con 'Un hombre sin pasado' y 'Luces al atardecer', dan como resultado esta nueva forma de cine popular que es 'Le Havre', una historia que va de lo cotidiano y realista a lo social y pragmático-humanista (la presencia de un inmigranteilegal africano, la solidaridad de la clase obrera), de lo humorístico según el ideario del cineasta a lo caricaturesco: Jean-Pierre Darrousin, liberado del yugo Guédiguian, más cómodo en el puerto de Le Havre que en el de Marsella, compone la figura de un inspector de policía que parece recién salido de un cartoon por su atuendo y gestos. No hay filme de Kaurismäki sin un viejo rockero a reivindicar –aquí la banda LittleBob y su líder de tupe encanecido, Roberto Piazza, natural de Le Havre–, sin el concurso del perro Laika y sin la presencia-chiste de Jean-Pierre Léaud, que en este caso se reserva el papel, en las antípodas del enamoradizo Antoine Doinel, de un hosco representante del sistema represivo que denuncia a los ilegales en la estación de tren.
A favor: La luz, la solidaridad, la forma de filmar a las gentes, el sentido del humor.
En contra: Que Kaurismäki no ruede más a menudo.


Marcel Marx, ex-écrivain et bohème renommé, s’est exilé volontairement dans la ville portuaire du Havre où son métier honorable mais non rémunérateur de cireur de chaussures lui donne le sentiment d’être plus proche du peuple en le servant. Il a fait le deuil de son ambition littéraire et mène une vie satisfaisante dans le triangle constitué par le bistrot du coin, son travail et sa femme Arletty, quand le destin met brusquement sur son chemin un enfant immigré originaire d’Afrique noire. Quand au même moment, Arletty tombe gravement malade et doit s’aliter, Marcel doit à nouveau combattre le mur froid de l’indifférence humaine avec pour seules armes, son optimisme inné et la solidarité têtue des habitants de son quartier. Il affronte la mécanique aveugle d’un Etat de droit occidental, représenté par l’étau de la police qui se resserre de plus en plus sur le jeune garçon réfugié. Il est temps pour Marcel de cirer ses chaussures et de montrer les dents. (Allociné / Cinémotions)

AMG SYNOPSIS: Aki Kaurismaki's La Havre stars Andre Wilms as Marcel, a free-spirited, good-natured writer who is currently making a living as a shoeshiner. He meets Idrissa (Blondin Miguel), an African refugee and helps the young man hide from officials who want him deported., Meanwhile, Marcel's loving wife suffers from a serious illness. -- Perry Seibert


Críticas:


&&&&&&&&&&&&&&&&&&&&&&&&&&&&&&&&&&&&&&&&&&&&&&&&&&&&&


Imagen
** Criterion Collection (2012) / 1.85:1/ 93 m.**
DVDBeaver / BluRay.com

versión Criterion BluRay HD 720p VO+SE/I 3,91 Gb.


Datos técnicos:
** versión Criterion 720p VO+SI (VobSub/PGS) / AC3 5.1 / 1280x688 (1.85:1 / 1.860) / 93 m. / Menú **
## Le.Havre.2011.720p.BluRay.CRITERION.x264-PublicHD.mkv [3.91 Gb] ##
** IMDB AR 1.85:1 **
detalles técnicos u otros: mostrar contenido
Código: Seleccionar todo
General
Complete name                            : le.havre.2011.720p.bluray.criterion.x264-publichd.mkv
Format                                   : Matroska
Format version                           : Version 2
File size                                : 3.91 GiB
Duration                                 : 1h 33mn
Overall bit rate                         : 5 963 Kbps
Encoded date                             : UTC 2012-08-07 20:34:00
Writing application                      : mkvmerge v5.7.0 ('The Whirlwind') built on Jul  8 2012 20:08:51
Writing library                          : libebml v1.2.3 + libmatroska v1.3.0

Video
ID                                       : 1
Format                                   : AVC
Format/Info                              : Advanced Video Codec
Format profile                           : High@L4.1
Format settings, CABAC                   : Yes
Format settings, ReFrames                : 8 frames
Codec ID                                 : V_MPEG4/ISO/AVC
Duration                                 : 1h 33mn
Bit rate                                 : 5 422 Kbps
Width                                    : 1 280 pixels
Height                                   : 688 pixels
Display aspect ratio                     : 1.85:1
Frame rate mode                          : Constant
Frame rate                               : 23.976 fps
Color space                              : YUV
Chroma subsampling                       : 4:2:0
Bit depth                                : 8 bits
Scan type                                : Progressive
Bits/(Pixel*Frame)                       : 0.257
Stream size                              : 3.41 GiB (87%)
Writing library                          : x264 core 125 r2200 999b753
Encoding settings                        : cabac=1 / ref=9 / deblock=1:-3:-3 / analyse=0x3:0x133 / me=umh / subme=9 / psy=1 / psy_rd=1.00:0.15 / mixed_ref=1 / me_range=24 / chroma_me=1 / trellis=2 / 8x8dct=1 / cqm=0 / deadzone=21,11 / fast_pskip=1 / chroma_qp_offset=-3 / threads=12 / lookahead_threads=2 / sliced_threads=0 / nr=0 / decimate=1 / interlaced=0 / bluray_compat=0 / constrained_intra=0 / bframes=5 / b_pyramid=1 / b_adapt=2 / b_bias=0 / direct=3 / weightb=1 / open_gop=0 / weightp=2 / keyint=240 / keyint_min=23 / scenecut=40 / intra_refresh=0 / rc_lookahead=60 / rc=abr / mbtree=1 / bitrate=5422 / ratetol=1.0 / qcomp=0.60 / qpmin=0 / qpmax=69 / qpstep=4 / ip_ratio=1.40 / aq=1:1.00
Language                                 : French
Default                                  : Yes
Forced                                   : No

Audio
ID                                       : 2
Format                                   : AC-3
Format/Info                              : Audio Coding 3
Mode extension                           : CM (complete main)
Format settings, Endianness              : Big
Codec ID                                 : A_AC3
Duration                                 : 1h 33mn
Bit rate mode                            : Constant
Bit rate                                 : 640 Kbps
Channel(s)                               : 6 channels
Channel positions                        : Front: L C R, Side: L R, LFE
Sampling rate                            : 48.0 KHz
Bit depth                                : 16 bits
Compression mode                         : Lossy
Stream size                              : 430 MiB (11%)
Language                                 : French
Default                                  : Yes
Forced                                   : No

Text #1
ID                                       : 3
Format                                   : VobSub
Codec ID                                 : S_VOBSUB
Codec ID/Info                            : The same subtitle format used on DVDs
Language                                 : English
Default                                  : Yes
Forced                                   : No

Text #2
ID                                       : 4
Format                                   : PGS
Codec ID                                 : S_HDMV/PGS
Codec ID/Info                            : The same subtitle format used on BDs/HD-DVDs
Language                                 : English
Default                                  : No
Forced                                   : No

Menu
00:00:00.000                             : en:00:00:00.000
00:05:08.141                             : en:00:05:08.141
00:08:06.444                             : en:00:08:06.444
00:10:03.728                             : en:00:10:03.728
00:11:44.704                             : en:00:11:44.704
00:15:27.343                             : en:00:15:27.343
00:18:18.389                             : en:00:18:18.389
00:21:57.900                             : en:00:21:57.900
00:24:36.016                             : en:00:24:36.016
00:27:22.641                             : en:00:27:22.641
00:30:11.059                             : en:00:30:11.059
00:33:17.996                             : en:00:33:17.996
00:35:40.180                             : en:00:35:40.180
00:39:47.135                             : en:00:39:47.135
00:44:27.248                             : en:00:44:27.248
00:47:58.125                             : en:00:47:58.125
00:50:54.468                             : en:00:50:54.468
00:53:29.498                             : en:00:53:29.498
00:59:31.276                             : en:00:59:31.276
01:03:36.855                             : en:01:03:36.855
01:08:11.087                             : en:01:08:11.087
01:10:34.021                             : en:01:10:34.021
01:14:56.033                             : en:01:14:56.033
01:19:55.582                             : en:01:19:55.582
01:23:31.256                             : en:01:23:31.256
01:26:53.834                             : en:01:26:53.834
01:30:27.422                             : en:01:30:27.422


Capturas:
Imagen Imagen Imagen
Imagen Imagen Imagen Imagen
Imagen Imagen Imagen Imagen
Imagen Imagen Imagen
Imagen Imagen


Enlace ed2k: no disponible.

Torrent:
The Pirate Bay: Magnet Le.Havre.2011.720p.BluRay.CRITERION.x264-PublicHD
PublicHD: Magnet Enlace torrent magnético

Subtítulos: castellano / español neutro.
Subs en castellano sincronizados por jinetefantasma.
Subs en español americano neutro (argenteam), sincronizados por MiguelAQZ.


&&&&&&&&&&&&&&&&&&&&&&&&&&&&&&&&&&&&&&&&&&&&&&&&&&&&&

Versión BRRip VO+SE 577 Mb mkv.


Datos técnicos:
** Pyramide Vidéo (2012) / 1.85:1 / 93 m. **
** BRRip VO+SI+SCh / 848x456 (1.860) / 93 m. **
detalles técnicos u otros: mostrar contenido
Código: Seleccionar todo
    General
    Complete name                    : Le.Havre.2011.BD.MiniSD-TLF.mkv
    Format                           : Matroska
    Format version                   : Version 2
    File size                        : 577 MiB
    Duration                         : 1h 29mn
    Overall bit rate                 : 899 Kbps
    Encoded date                     : UTC 2012-03-14 06:49:27
    Writing application              : mkvmerge v5.3.0 ('I could have danced') built on Feb  9 2012 10:38:07
    Writing library                  : libebml v1.2.3 + libmatroska v1.3.0

    Video
    ID                               : 1
    Format                           : AVC
    Format/Info                      : Advanced Video Codec
    Format profile                   : High@L3.1
    Format settings, CABAC           : Yes
    Format settings, ReFrames        : 10 frames
    Codec ID                         : V_MPEG4/ISO/AVC
    Duration                         : 1h 29mn
    Nominal bit rate                 : 836 Kbps
    Width                            : 848 pixels
    Height                           : 456 pixels
    Display aspect ratio             : 1.860
    Frame rate mode                  : Variable
    Frame rate                       : 25.000 fps
    Color space                      : YUV
    Chroma subsampling               : 4:2:0
    Bit depth                        : 8 bits
    Scan type                        : Progressive
    Bits/(Pixel*Frame)               : 0.086
    Title                            : SOURCE:Le.Havre.2011.Blu-ray.720p.x264.DTS(Fre)-MySiLU
    Writing library                  : x264 core 120 r2148+641+27 e2bd7d7 tMod [8-bit@4:2:0 X86]
    Encoding settings                : cabac=1 / ref=10 / deblock=1:-2:-1 / analyse=0x3:0x113 / me=tesa / subme=11 / psy=1 / fade_compensate=0.00 / psy_rd=1.10:0.08 / mixed_ref=1 / me_range=16 / chroma_me=1 / trellis=2 / 8x8dct=1 / cqm=0 / deadzone=21,11 / fast_pskip=1 / chroma_qp_offset=-3 / threads=9 / sliced_threads=0 / nr=0 / decimate=1 / interlaced=0 / bluray_compat=0 / constrained_intra=0 / fgo=0 / bframes=10 / b_pyramid=2 / b_adapt=2 / b_bias=0 / direct=3 / weightb=1 / open_gop=0 / weightp=2 / keyint=250 / keyint_min=25 / scenecut=40 / intra_refresh=0 / rc_lookahead=60 / rc=2pass / mbtree=1 / bitrate=836 / ratetol=1.0 / qcomp=0.70 / qpmin=0 / qpmax=69 / qpstep=4 / cplxblur=20.0 / qblur=0.5 / ip_ratio=1.40 / aq=1:1.00
    Default                          : Yes
    Forced                           : No

    Audio
    ID                               : 2
    Format                           : AAC
    Format/Info                      : Advanced Audio Codec
    Format profile                   : HE-AAC / LC
    Codec ID                         : A_AAC
    Duration                         : 1h 29mn
    Channel(s)                       : 2 channels
    Channel positions                : Front: L R
    Sampling rate                    : 48.0 KHz / 24.0 KHz
    Compression mode                 : Lossy
    Delay relative to video          : 31ms
    Title                            : AAC2.0 Fre/Fin
    Default                          : Yes
    Forced                           : No

    Text #1
    ID                               : 3
    Format                           : UTF-8
    Codec ID                         : S_TEXT/UTF8
    Codec ID/Info                    : UTF-8 Plain Text
    Title                            : chs
    Language                         : Chinese
    Default                          : Yes
    Forced                           : No

    Text #2
    ID                               : 4
    Format                           : UTF-8
    Codec ID                         : S_TEXT/UTF8
    Codec ID/Info                    : UTF-8 Plain Text
    Title                            : cht
    Language                         : Chinese
    Default                          : No
    Forced                           : No

    Text #3
    ID                               : 5
    Format                           : UTF-8
    Codec ID                         : S_TEXT/UTF8
    Codec ID/Info                    : UTF-8 Plain Text
    Title                            : big5
    Language                         : Chinese
    Default                          : No
    Forced                           : No

    Text #4
    ID                               : 6
    Format                           : UTF-8
    Codec ID                         : S_TEXT/UTF8
    Codec ID/Info                    : UTF-8 Plain Text
    Title                            : eng
    Language                         : English
    Default                          : No
    Forced                           : No

    Menu
    00:00:00.097                     : en:00:00:00.097


Capturas:
Imagen

Imagen


Enlace ed2k:
eLink de eMule Le.Havre.2011.BD.MiniSD-TLF.mkv  [577.27 Mb]

Subtítulos (descarga directa): castellano / inglés / italiano / portBR.
Subs en castellano e inglés, subidos por Gorchakov para la versión "Le.Havre.2011.BRRip.XviD.AC3.HORiZON-ArtSubs". Comprobados.

Para quienes prefieran descargar por la mula un versión de reducido tamaño, pero con una aceptable calidad de imagen en una TV convencional CRT.

&&&&&&&&&&&&&&&&&&&&&&&&&&&&&&&&&&&&&&&&&&&&&&&&&&&&&


Enlaces relacionados:

Aki Kaurismäki.

Rikos ja rangaistus (Crimen y castigo, 1983) HD 720p VO+SE
Calamari Union (1985) HD 720p VO+SE
Varjoja paratiisissa (Sombras en el paraíso / Shadows in Paradis, 1986) HD 720p VO+SE
Hamlet Liike maailmassa (Hamlet se mete a hombre de negocios / Hamlet Goes Businesss, 1987) HD 720p / DVDRip VO+SE
Ariel (1988) HD 720p VO+SE
Leningrad Cowboys Go America (1989) HD 720p VO+SE
Tulitikkutehtaan tyttö (La chica de la fábrica de cerillas / The Match Factory Girl, 1990) HD 1080p VO+SE
I Hired a Contract Killer (Contraté a un asesino a sueldo, 1990) HD 720p VO+SE
La vie de bohème (La vida de bohemia / La vida bohemia / The Bohemian Life, 1992) HD 720p VO+SE
Pidä huivista kiinni, Tatjana (Agárrate el pañuelo, Tatiana, 1994) HD 1080p / 720p VO+SE
Leningrad Cowboys Meet Moses (1994) HD 720p VO+SE
Kauas pilvet karkaavat (Nubes pasajeras / Drifting Clouds, 1996) HD 720p VO+SE
Juha (Aki Kaurismäki, 1999) HD 720p VO+SE
Mies vailla menneisyyttä (Un hombre sin pasado / The Man Without a Past, 2002) HD 720p VO+SE
Laitakaupungin valot (Luces al atardecer / Las luces del suburbio /Lights in the Dusk, 2006) HD 720p VO+SE
Le Havre (El Havre: el puerto de la esperanza, 2011) Criterion HD 720p VO+SE


Monografías: Aki Kaurismäki.


Salud.



Volver a Largometrajes de ficción

Antes de empezar, un par de cosas:

Puedes usar las redes sociales para enterarte de las novedades o ayudarnos a difundir lo que encuentres.
Si ahora no te apetece, puedes hacerlo cuando quieras con los botones de arriba.

Facebook Twitter
Telegram YouTube

Sí, usamos cookies. Puedes ver para qué las usamos y cómo quitarlas o simplemente puedes aceptarlo.